<?xml version="1.0" standalone="no"?>
<!DOCTYPE svg PUBLIC "-//W3C//DTD SVG 1.1//EN" "http://www.w3.org/Graphics/SVG/1.1/DTD/svg11.dtd">
<svg xmlns="http://www.w3.org/2000/svg">
<defs >
<font id="RobotoMono" horiz-adv-x="1202" ><font-face
    font-family="Roboto Mono"
    units-per-em="2048"
    panose-1="0 0 0 9 0 0 0 0 0 0"
    ascent="2146"
    descent="-555"
    alphabetic="0" />
<glyph unicode=" " />
<glyph unicode="!" d="M698 509L878 1456H600L451 509H698ZM352 130Q352 97 364 70T398 24Q419 4 447 -6T509 -16Q542 -16 571 -4T622 29Q643 50 655 78T667 141Q667 175 655 203T622 251Q601 270 573 281T511 291Q477 291 448 279T398 245Q376 223 364 194T352 130Z" />
<glyph unicode="&quot;" d="M601 1416L620 1536H418L401 1425L335 1008H510L601 1416ZM999 1416L1018 1536H818L801 1429L735 1008H909L999 1416Z" />
<glyph unicode="#" d="M594 410L451 0H632L774 410H1016L1046 579H832L933 869H1170L1200 1040H991L1137 1456H956L811 1040H623L767 1456H588L442 1040H188L158 869H384L283 579H36L6 410H225L83 0H263L406 410H594ZM463 579L564 869H752L652 579H463Z" />
<glyph unicode="$" d="M804 389Q792 296 721 249T562 203Q449 205 406 278T369 453L97 454Q89 268 180 140T461 -15L424 -213H580L616 -17Q792 1 926 99T1072 391Q1078 485 1050 555T970 680Q918 733 848 773T701 847Q663 863 628 881T567 925Q541 949 527 982T519
1063Q531 1150 590 1201T739 1250Q842 1248 873 1170T901 1005H1172Q1180 1173 1107 1304T858 1469L898 1688H741L701 1473Q523 1455 393 1352T251 1063Q245 969 273 899T355 775Q407 721 477 682T626 610Q665 594 699 575T760 531Q785 505 797 471T804 389Z" />
<glyph unicode="%" d="M133 1195L126 1119Q122 1059 137 1009T184 921Q216 884 263 863T372 840Q436 838 489 858T584 916Q624 953 649 1005T681 1119L688 1196Q692 1256 678 1307T633 1396Q601 1433 554 1454T444 1478Q379 1479 325 1459T231 1401Q190 1363 165
1311T133 1195ZM312 1117L319 1197Q322 1219 329 1240T350 1279Q362 1295 381 1305T426 1315Q452 1315 468 1305T492 1277Q500 1260 502 1239T504 1197L496 1118Q493 1096 486 1075T466 1037Q453 1020 434 1010T390 1000Q364 1000 349 1010T325 1038Q316 1054 314
1075T312 1117ZM554 336L547 259Q542 199 557 149T605 61Q637 23 684 2T794 -21Q858 -22 912 -2T1006 55Q1046 92 1071 144T1103 259L1110 337Q1114 397 1100 448T1054 536Q1022 573 975 594T865 618Q801 619 747 599T653 542Q612 504 587 452T554 336ZM733 257L741
338Q744 360 751 381T771 420Q784 436 803 445T848 455Q873 455 888 445T913 418Q921 401 923 380T925 338L917 259Q914 235 908 213T889 175Q877 158 858 149T812 140Q788 140 772 151T747 179Q738 195 735 216T733 257ZM338 199L1058 1222L930 1290L210 267L338
199Z" />
<glyph unicode="&amp;" d="M37 364Q25 191 135 87T414 -20Q509 -22 593 5T758 81L805 0H1098L960 238Q1058 334 1110 453T1174 708H943Q933 632 906 566T833 436L650 745L751 818Q837 878 910 956T990 1148Q998 1280 916 1376T699 1477Q525 1481 410 1372T281
1093Q277 1050 281 1009T296 928Q306 888 320 849T350 770L307 743Q261 713 218 679T140 605Q97 555 70 496T37 364ZM440 203Q365 205 336 259T315 379Q319 410 330 440T359 497Q376 524 397 548T443 591L454 598L646 257Q597 234 546 218T440 203ZM518 1094Q526
1153 567 1204T678 1253Q727 1251 740 1211T752 1132Q748 1081 721 1047T655 983L553 914Q546 932 540 950T528 986Q520 1012 517 1039T518 1094Z" />
<glyph unicode="&apos;" d="M774 1382L798 1536H589L568 1402L504 993H687L774 1382Z" />
<glyph unicode="(" d="M333 588L330 565Q319 480 317 385T323 192Q332 94 355 -1T420 -182Q460 -267 520 -338T665 -457L729 -308Q671 -259 634 -194T576 -53Q555 22 547 103T540 266Q541 347 548 424T564 567L567 592Q585 716 617 839T703 1075Q755 1188 829
1288T1007 1466L964 1621Q868 1578 788 1512T642 1364Q576 1281 525 1186T435 991Q397 890 372 788T333 588Z" />
<glyph unicode=")" d="M851 574L854 597Q865 682 867 777T858 971Q847 1069 823 1164T756 1346Q713 1431 652 1501T506 1619L442 1471Q499 1422 536 1357T595 1216Q616 1140 624 1058T632 895Q631 814 624 738T608 595L604 570Q586 446 554 323T469 86Q416 -28
341 -128T163 -306L202 -459Q352 -395 468 -275T664 -5Q739 131 785 282T851 574Z" />
<glyph unicode="*" d="M522 894L205 572L368 442L628 799L774 427L959 549L746 877L1149 968L1117 1184L737 1025L842 1456H628L595 1020L252 1188L158 990L522 894Z" />
<glyph unicode="+" d="M747 812L815 1206H557L488 812H132L88 558H444L373 146H631L703 558H1058L1102 812H747Z" />
<glyph unicode="," d="M592 23L629 243H374L334 9Q317 -86 279 -166T190 -328L332 -406Q381 -366 424 -318T501 -215Q535 -161 558 -101T592 23Z" />
<glyph unicode="-" d="M1070 530L1110 755H300L261 530H1070Z" />
<glyph unicode="." d="M334 154Q334 77 385 28T516 -21Q595 -21 651 32T708 168Q708 245 657 295T526 346Q442 346 388 291T334 154Z" />
<glyph unicode="/" d="M344 -125L1148 1456H885L82 -125H344Z" />
<glyph unicode="0" d="M1052 555L1107 902Q1116 972 1114 1041T1096 1174Q1081 1237 1052 1291T978 1387Q933 1427 872 1451T729 1477Q652 1479 587 1462T468 1412Q434 1390 404 1363T347 1305Q281 1224 242 1119T186 902L132 554Q126 506 125 458T129 365Q134
311 148 260T187 165Q230 84 309 33T509 -21Q590 -23 658 -4T781 52Q838 89 883 142T961 259Q995 325 1017 400T1052 555ZM706 1253Q763 1251 793 1222T836 1150Q848 1107 848 1058T842 966L424 684Q425 689 426 696T433 740L466 947Q473 998 487 1053T530 1154Q540
1170 552 1185T578 1212Q603 1232 634 1243T706 1253ZM531 202Q475 204 445 232T402 302Q389 343 389 391T392 481L813 764Q809 744 808 732T803 701L773 511Q767 474 758 435T735 358Q722 323 701 291T651 236Q626 216 597 208T531 202Z" />
<glyph unicode="1" d="M694 0L940 1456H920L277 1232L233 980L613 1111L420 0H694Z" />
<glyph unicode="2" d="M967 0L1003 223H391L702 513Q761 568 825 627T944 754Q999 820 1037 895T1082 1057Q1090 1152 1065 1228T987 1360Q934 1414 858 1444T689 1476Q584 1478 488 1444T317 1347Q241 1284 193 1196T136 1001L407 1002Q414 1055 433 1100T484
1178Q515 1211 559 1229T661 1246Q704 1244 734 1228T784 1184Q802 1157 808 1122T810 1046Q803 994 777 946T714 854Q677 809 636 770T560 697L34 200L3 0H967Z" />
<glyph unicode="3" d="M451 850L413 634L575 633Q628 631 667 615T730 570Q752 543 760 505T762 419Q756 369 734 329T677 260Q642 232 598 217T504 203Q459 205 424 220T366 261Q345 286 334 320T324 396L55 397Q52 300 83 224T171 94Q228 40 307 11T480 -20Q581
-22 676 5T848 89Q924 144 972 226T1029 416Q1033 468 1025 516T996 608Q975 650 942 684T860 741Q911 765 956 797T1038 870Q1073 910 1095 959T1123 1069Q1131 1168 1101 1243T1013 1370Q955 1421 875 1447T703 1476Q611 1478 524 1452T367 1375Q297 1324 252
1249T199 1077L469 1079Q477 1120 497 1152T546 1208Q575 1230 612 1242T691 1253Q729 1252 758 1242T808 1211Q833 1187 844 1150T849 1066Q842 1013 820 973T762 905Q727 878 682 864T586 849L451 850Z" />
<glyph unicode="4" d="M915 541L1074 1456H791L40 502L19 316H605L550 0H821L876 316H1040L1079 541H915ZM320 541L711 1034L746 1085L644 541H320Z" />
<glyph unicode="5" d="M169 721L390 664Q434 702 482 722T590 742Q646 741 683 720T741 663Q762 628 768 583T769 488Q763 435 747 384T701 291Q671 250 627 225T522 202Q477 203 444 219T389 262Q367 289 355 325T341 403H76Q76 309 107 232T196 100Q253 44 331
13T502 -20Q612 -23 706 13T871 115Q941 181 985 272T1040 472Q1049 566 1033 653T972 807Q927 873 854 913T677 955Q621 956 567 942T464 898L564 1220H1123L1164 1456H377L169 721Z" />
<glyph unicode="6" d="M983 1469H941Q858 1469 783 1455T640 1414Q516 1364 419 1278T253 1080Q198 990 163 885T111 664L97 557Q85 450 104 348T176 165Q227 84 311 34T514 -20Q624 -23 717 16T881 124Q951 193 994 286T1047 486Q1055 573 1040 659T983 814Q942
883 873 926T704 971Q662 971 623 963T549 938Q508 920 472 893T404 833Q421 881 442 924T489 1006Q534 1070 591 1118T719 1197Q768 1217 825 1228T947 1238L959 1237L983 1469ZM610 749Q663 747 697 722T751 659Q770 620 775 574T777 483Q772 433 754 383T705
292Q673 251 629 226T528 203Q487 204 458 219T410 260Q391 285 380 317T365 386Q361 421 361 456T365 522L376 606Q395 636 420 662T475 709Q504 728 538 739T610 749Z" />
<glyph unicode="7" d="M1168 1289L1194 1456H200L164 1229H868L125 0H421L1168 1289Z" />
<glyph unicode="8" d="M1105 1077Q1112 1170 1085 1243T1004 1368Q950 1419 875 1446T711 1476Q615 1478 529 1451T377 1370Q310 1316 269 1238T220 1060Q216 1004 227 952T266 854Q283 826 306 801T357 755Q299 728 249 693T161 612Q123 567 100 512T71 389Q63
291 94 216T183 89Q240 37 320 9T492 -20Q591 -22 683 5T847 87Q919 141 965 221T1018 407Q1023 477 1005 541T948 657Q930 681 907 703T855 743Q906 769 949 802T1026 877Q1059 918 1079 968T1105 1077ZM750 425Q745 378 726 337T675 266Q643 236 602 219T512
202Q467 203 434 219T379 264Q358 291 350 328T347 409Q352 457 371 498T423 571Q454 601 495 618T587 635Q632 634 665 617T719 572Q739 543 747 505T750 425ZM833 1064Q828 1023 812 986T770 919Q743 890 707 873T627 857Q586 857 558 873T513 917Q496 943 490
977T487 1048Q491 1090 506 1127T549 1192Q575 1220 610 1236T691 1252Q731 1251 759 1236T806 1194Q823 1168 830 1135T833 1064Z" />
<glyph unicode="9" d="M253 220L238 221L214 -13H240Q421 -12 565 48T814 215Q918 321 982 467T1070 786L1082 882Q1089 951 1085 1022T1064 1158Q1046 1223 1015 1280T937 1381Q890 1424 827 1449T683 1476Q609 1478 543 1460T419 1407Q362 1372 315 1324T234
1217Q199 1158 178 1092T150 955Q142 866 158 780T218 626Q261 558 331 516T502 473Q544 472 582 479T656 501Q686 513 715 532T770 575Q748 515 720 465T657 376Q618 333 571 302T468 251Q421 235 367 227T253 220ZM581 686Q527 687 494 714T444 781Q426 820 422
867T422 959Q427 1007 444 1059T491 1155Q521 1198 564 1225T664 1252Q694 1251 717 1242T757 1216Q788 1187 803 1141T820 1047Q822 1017 821 987T817 932L804 831Q786 800 763 773T712 727Q684 707 651 696T581 686Z" />
<glyph unicode=":" d="M348 154Q348 77 399 28T530 -21Q609 -21 665 32T722 168Q722 245 671 295T540 346Q456 346 402 291T348 154ZM490 980Q490 903 541 854T672 805Q751 805 807 858T864 994Q864 1071 813 1121T682 1172Q598 1172 544 1117T490 980Z" />
<glyph unicode=";" d="M528 980Q528 903 579 854T710 805Q789 805 845 858T902 994Q902 1071 851 1121T720 1172Q636 1172 582 1117T528 980ZM666 23L703 243H448L408 9Q391 -86 353 -166T264 -328L406 -406Q455 -366 498 -318T575 -215Q609 -161 632 -101T666 23Z" />
<glyph unicode="&lt;" d="M136 517L933 149L978 410L466 598L417 618L500 647L1057 833L1099 1109L175 741L136 517Z" />
<glyph unicode="=" d="M1092 717L1132 945H213L173 717H1092ZM1017 286L1057 513H138L98 286H1017Z" />
<glyph unicode="&gt;" d="M75 137L1014 505L1053 731L242 1098L197 839L733 645L775 628L700 605L124 417L75 137Z" />
<glyph unicode="?" d="M466 441L706 442Q716 512 742 563T827 663Q881 706 936 750T1038 846Q1084 897 1115 957T1153 1094Q1161 1191 1132 1262T1046 1381Q989 1428 912 1451T745 1477Q648 1479 561 1454T407 1379Q339 1328 296 1252T243 1075L515 1076Q523 1116
541 1148T586 1204Q613 1227 648 1239T726 1251Q762 1250 790 1241T837 1215Q861 1194 870 1161T873 1083Q866 1037 841 995T781 916Q746 878 707 846T634 786Q539 711 508 634T466 441ZM365 133Q365 66 410 26T521 -13Q588 -13 634 30T680 145Q680 211 635 254T523
295Q454 295 410 248T365 133Z" />
<glyph unicode="@" d="M1174 830Q1194 974 1164 1115T1039 1344Q991 1388 927 1414T778 1442Q676 1444 587 1414T421 1328Q345 1272 284 1197T176 1035Q129 949 99 857T54 674Q41 590 41 508T57 350Q72 274 105 210T191 98Q243 50 317 22T489 -7Q559 -9 630 8T759
64L737 202Q679 177 617 163T492 149Q418 150 367 173T282 235Q248 274 231 326T207 436Q201 494 205 554T219 673Q230 742 252 815T309 958Q343 1027 388 1088T490 1196Q547 1241 616 1266T767 1289Q835 1287 882 1267T961 1212Q1024 1142 1030 1033T1023 816Q1020
796 1016 761T1003 684Q995 643 983 601T953 525Q935 491 911 470T853 451Q835 452 827 460T817 480Q815 491 816 505T820 533L942 1061Q898 1101 848 1119T738 1139Q677 1140 626 1122T532 1070Q490 1037 458 992T401 896Q376 845 360 791T334 684Q327 643 325
592T329 492Q335 456 346 424T376 367Q397 339 429 323T506 307Q534 308 558 316T603 339Q623 354 641 370T675 404Q693 356 730 331T819 304Q880 303 928 328T1015 397Q1052 439 1079 495T1125 610Q1144 668 1155 725T1174 830ZM507 684Q512 715 521 749T543 816Q557
851 577 883T624 941Q649 963 680 976T751 988Q757 988 763 988T777 985L655 519Q644 508 633 498T609 479Q596 470 582 465T552 460Q539 461 529 467T514 481Q499 505 496 536T496 607Q498 631 501 652T507 684Z" />
<glyph unicode="A" d="M774 304L803 0H1084L882 1456H633L-82 0H215L351 304H774ZM460 543L700 1076L751 543H460Z" />
<glyph unicode="B" d="M20 0H551Q656 -1 754 23T929 101Q1005 154 1054 237T1111 435Q1114 485 1105 533T1074 623Q1052 664 1017 696T931 746Q984 768 1029 798T1110 868Q1144 907 1165 956T1191 1066Q1199 1171 1163 1244T1062 1364Q997 1410 911 1431T733 1455L273
1456L20 0ZM407 642L674 641Q723 639 758 624T814 580Q833 554 840 518T840 436Q832 383 807 344T745 279Q707 252 661 239T564 225L335 227L407 642ZM442 845L509 1227L723 1226Q768 1225 806 1215T870 1183Q896 1161 908 1127T913 1042Q905 988 879 951T815 889Q776
865 729 854T633 843L442 845Z" />
<glyph unicode="C" d="M1075 457L805 455Q794 399 772 353T716 273Q682 240 635 222T528 207Q475 209 441 230T387 287Q367 321 359 365T351 455Q350 501 354 546T363 628L391 827Q397 872 408 921T436 1018Q453 1065 477 1108T536 1183Q569 1214 613 1232T714
1249Q774 1247 812 1226T872 1169Q893 1134 900 1087T908 987L1180 986Q1177 1092 1149 1181T1067 1335Q1012 1400 929 1437T734 1477Q642 1479 564 1454T420 1384Q355 1339 304 1277T214 1141Q176 1068 151 987T113 825L84 629Q74 552 76 475T97 326Q114 254 147
192T231 83Q281 36 350 9T508 -21Q618 -24 715 9T887 106Q962 169 1011 258T1075 457Z" />
<glyph unicode="D" d="M17 0H411Q506 -1 591 22T748 87Q827 131 892 196T1006 343Q1049 414 1078 496T1120 667L1137 787Q1148 881 1139 969T1099 1134Q1074 1199 1033 1254T939 1351Q877 1398 798 1425T621 1455L269 1456L17 0ZM506 1228L610 1227Q669 1224 712
1205T785 1153Q814 1120 831 1078T857 987Q864 939 864 889T857 790L840 667Q832 612 817 558T776 457Q740 389 697 342T595 264Q559 245 516 235T423 224L332 226L506 1228Z" />
<glyph unicode="E" d="M1004 638L1043 860H462L526 1227H1201L1241 1456H291L38 0H991L1031 227H352L424 638H1004Z" />
<glyph unicode="F" d="M1025 603L1065 831H459L528 1227H1208L1249 1456H292L40 0H315L420 603H1025Z" />
<glyph unicode="G" d="M1033 169L1123 744H616L579 534H814L763 269Q718 234 661 220T548 207Q495 209 460 230T403 286Q381 320 371 363T359 453Q356 499 359 544T368 627L397 828Q403 870 414 918T445 1014Q463 1061 488 1104T547 1181Q581 1214 623 1233T719
1250Q772 1248 807 1231T865 1183Q887 1153 897 1112T909 1023H1175Q1170 1126 1141 1209T1057 1352Q1002 1410 922 1442T734 1476Q643 1477 566 1452T424 1382Q360 1336 309 1274T221 1139Q183 1066 158 986T121 826L92 628Q82 550 85 473T106 324Q123 253 156
191T241 83Q291 37 360 10T520 -20Q652 -22 794 21T1033 169Z" />
<glyph unicode="H" d="M956 0L1209 1456H938L834 859H436L540 1456H267L15 0H287L397 631H795L685 0H956Z" />
<glyph unicode="I" d="M335 1456L295 1229H564L390 226H122L82 0H901L941 226H665L839 1229H1114L1154 1456H335Z" />
<glyph unicode="J" d="M941 1456L769 446Q761 398 740 354T687 277Q655 243 612 224T517 205Q464 206 431 223T378 271Q359 300 353 340T349 428L74 429Q71 327 97 245T177 104Q230 45 310 13T494 -20Q599 -22 692 12T859 109Q932 171 981 257T1045 447L1216 1456H941Z" />
<glyph unicode="K" d="M556 595L800 0H1111L763 800L1362 1456H1010L591 978L434 803L548 1456H273L20 0H296L368 418L556 595Z" />
<glyph unicode="L" d="M355 227L569 1456H293L41 0H977L1017 227H355Z" />
<glyph unicode="M" d="M608 1456H271L18 0H270L343 420L449 1095L510 480H647L932 1090L808 442L731 0H983L1236 1456H892L646 913L608 1456Z" />
<glyph unicode="N" d="M955 0L1208 1456H933L767 511L538 1456H267L15 0H291L456 949L688 0H955Z" />
<glyph unicode="O" d="M1119 622L1152 833Q1162 909 1158 986T1136 1134Q1117 1204 1083 1265T998 1374Q946 1420 878 1447T721 1476Q630 1478 553 1454T413 1385Q350 1340 300 1278T214 1144Q177 1072 153 993T116 833L83 621Q73 546 76 470T96 324Q113 253 145
192T227 84Q276 37 343 10T498 -20Q590 -22 668 2T811 70Q876 114 927 175T1018 309Q1056 381 1081 461T1119 622ZM874 836L841 621Q834 578 823 530T795 436Q777 389 752 347T694 274Q660 243 617 226T520 210Q469 212 437 233T385 289Q366 323 358 366T350 454Q349
499 352 542T361 620L394 835Q400 878 410 925T436 1019Q451 1065 474 1106T529 1180Q560 1211 602 1228T699 1244Q750 1242 784 1221T839 1167Q860 1134 870 1092T883 1006Q885 961 882 917T874 836Z" />
<glyph unicode="P" d="M407 534L631 533Q736 533 834 563T1011 653Q1089 711 1139 796T1199 994Q1208 1098 1179 1182T1090 1326Q1030 1386 946 1419T761 1455L292 1456L40 0H314L407 534ZM446 762L527 1228L750 1227Q800 1225 836 1206T894 1155Q915 1123 922
1082T923 993Q916 939 892 896T830 823Q793 793 746 777T646 759L446 762Z" />
<glyph unicode="Q" d="M1121 578L1160 829Q1170 905 1166 982T1144 1131Q1125 1202 1091 1264T1005 1373Q954 1419 885 1446T728 1476Q636 1478 559 1454T419 1384Q355 1339 305 1277T218 1142Q181 1069 157 990T120 829L80 577Q71 505 76 434T102 297Q122 231
157 174T242 75Q291 33 356 8T502 -18Q539 -19 574 -15T645 -2L867 -257L1059 -106L864 118Q902 148 934 182T993 254Q1043 324 1074 406T1121 578ZM882 832L842 577Q836 538 825 496T796 415Q780 373 755 336T696 270Q663 241 621 225T527 210Q480 212 449 230T397
278Q376 307 366 344T353 422Q349 462 351 502T358 576L398 831Q404 874 414 922T441 1017Q457 1063 480 1105T535 1179Q567 1210 609 1228T707 1244Q759 1242 793 1221T849 1167Q870 1133 879 1091T891 1003Q893 958 890 914T882 832Z" />
<glyph unicode="R" d="M603 544L774 0H1066V15L865 612Q935 640 992 678T1091 768Q1132 819 1157 883T1188 1024Q1197 1132 1165 1212T1070 1345Q1007 1398 921 1425T734 1455L275 1456L22 0H297L391 544H603ZM430 772L510 1228L723 1227Q773 1225 811 1210T873
1167Q897 1139 907 1098T910 1005Q903 948 878 904T814 830Q775 800 726 785T621 769L430 772Z" />
<glyph unicode="S" d="M827 387Q820 339 795 305T734 248Q698 225 655 215T567 204Q507 205 461 221T386 269Q356 301 341 347T328 452L60 453Q57 343 93 257T197 109Q264 48 355 16T551 -19Q649 -21 746 2T919 82Q991 135 1040 209T1096 389Q1102 480 1073 553T990
683Q936 739 864 779T713 847Q676 859 631 875T548 917Q509 941 486 976T469 1063Q475 1111 500 1146T561 1206Q597 1229 640 1240T728 1251Q780 1250 818 1234T883 1189Q908 1160 920 1119T932 1029L1198 1028Q1201 1130 1169 1212T1076 1352Q1016 1410 932 1442T749
1476Q654 1478 560 1453T388 1376Q311 1324 260 1246T203 1064Q197 971 230 899T322 772Q380 718 455 680T609 616Q650 602 692 584T767 540Q799 513 816 476T827 387Z" />
<glyph unicode="T" d="M1274 1227L1315 1456H174L134 1227H564L351 0H626L839 1227H1274Z" />
<glyph unicode="U" d="M1217 1456H945L780 490Q772 438 754 386T706 293Q675 252 630 228T523 206Q467 209 437 237T393 308Q379 350 379 398T383 490L545 1456H271L106 490Q94 388 113 296T181 135Q230 65 309 24T499 -20Q618 -23 713 14T879 121Q949 189 993
284T1054 492L1217 1456Z" />
<glyph unicode="V" d="M366 0H645L1301 1456H991L587 474L561 410L554 483L462 1456H167L366 0Z" />
<glyph unicode="W" d="M127 0H375L605 752L637 855V742L636 0H884L1307 1456H1052L840 684L813 584L814 688L824 1456H627L402 693L372 593L376 696L408 1456H160L127 0Z" />
<glyph unicode="X" d="M652 936L487 1456H179L459 746L-72 0H264L604 528L780 0H1087L799 722L1318 1456H984L652 936Z" />
<glyph unicode="Y" d="M636 787L474 1456H186L457 530L366 0H639L725 491L1343 1456H1030L636 787Z" />
<glyph unicode="Z" d="M368 227L1209 1278L1236 1456H222L185 1227H862L21 183L-8 0H1026L1061 227H368Z" />
<glyph unicode="[" d="M959 1475L993 1690H558L241 -335H676L710 -120H545L794 1475H959Z" />
<glyph unicode="\" d="M385 1456L640 -125H884L630 1456H385Z" />
<glyph unicode="]" d="M558 1690L524 1475H690L441 -120H275L241 -335H677L994 1690H558Z" />
<glyph unicode="^" d="M215 687H445L685 1130L724 1222L728 1153L823 687H1030L855 1456H659L215 687Z" />
<glyph unicode="_" d="M887 -217L926 0H39L1 -217H887Z" />
<glyph unicode="`" d="M955 1199L826 1478H544L757 1199H955Z" />
<glyph unicode="a" d="M700 0H969L970 18Q949 76 953 137T967 258L1042 723Q1051 816 1023 886T939 1004Q883 1051 807 1076T646 1103Q565 1104 483 1085T332 1023Q264 980 219 915T168 759L439 761Q446 794 460 819T497 861Q520 879 550 887T617 895Q656 894
687 883T739 850Q759 828 767 797T770 727L757 660L601 662Q540 662 478 655T356 631Q297 614 245 587T153 518Q113 477 89 422T61 295Q58 223 83 165T154 67Q199 26 260 4T390 -20Q448 -21 500 -8T598 32Q622 46 645 63T690 101Q689 75 690 51T700 0ZM461 194Q432
194 408 202T366 225Q349 240 341 263T337 317Q341 344 350 366T372 405Q388 426 410 440T455 467Q491 482 532 489T613 496L736 495L702 308Q683 285 661 266T614 233Q580 213 541 203T461 194Z" />
<glyph unicode="b" d="M1071 536L1074 557Q1080 618 1079 681T1065 805Q1053 865 1029 918T965 1012Q925 1052 870 1076T740 1102Q689 1103 644 1091T559 1056Q536 1042 514 1024T470 983L576 1536H304L38 0H284L324 116Q339 94 356 76T394 42Q434 12 482 -3T585
-20Q663 -22 727 -1T843 60Q894 99 933 153T1000 270Q1028 332 1045 400T1071 536ZM802 557L800 536Q796 500 788 462T768 389Q754 346 730 308T671 244Q646 225 618 215T538 204Q512 204 480 212T425 237Q405 252 390 273T366 323L441 757Q459 784 480 806T527
843Q554 860 585 868T654 876Q696 875 724 860T770 819Q787 794 795 762T807 694Q809 659 807 624T802 557Z" />
<glyph unicode="c" d="M531 201Q495 202 469 213T424 242Q398 268 386 305T369 383Q366 418 367 454T372 523L376 553Q382 601 395 650T432 743Q444 767 463 791T504 833Q532 855 568 867T649 878Q692 876 724 861T777 819Q798 793 807 758T813 682L1068 681Q1073
774 1047 850T968 983Q915 1038 840 1069T672 1102Q557 1105 462 1066T295 955Q215 873 167 772T105 553L102 522Q96 465 99 410T114 304Q132 226 173 161T277 50Q323 18 383 -1T518 -21Q605 -23 689 3T843 81Q911 132 955 205T1004 371L750 369Q744 329 724 297T674
244Q644 222 608 211T531 201Z" />
<glyph unicode="d" d="M100 543L97 521Q91 462 93 400T109 278Q122 218 147 165T211 72Q250 31 304 7T430 -20Q481 -21 526 -9T610 25Q639 42 665 64T716 113L702 0H945L1211 1536H939L835 983Q817 1005 797 1023T754 1055Q719 1077 678 1089T590 1102Q512 1104
448 1082T332 1021Q280 981 241 927T173 809Q144 746 126 678T100 543ZM369 521L371 542Q378 599 395 659T444 768Q476 817 524 848T640 878Q671 877 696 870T742 847Q763 833 778 811T805 761L727 321Q708 296 687 275T641 239Q615 222 584 214T517 206Q478 207
451 221T407 259Q392 278 384 302T369 354Q362 395 363 439T369 521Z" />
<glyph unicode="e" d="M556 -20Q685 -21 807 27T1002 175L879 326Q821 266 746 234T585 204Q531 205 489 224T419 277Q390 310 375 354T362 451H1069L1087 569Q1100 674 1082 769T1013 938Q962 1011 880 1055T685 1102Q604 1104 531 1084T396 1026Q347 996 304
956T225 869Q174 799 142 715T99 541L95 500Q85 390 114 296T205 133Q266 63 355 22T556 -20ZM665 878Q710 876 744 860T802 815Q824 787 833 749T835 667L830 642H389Q408 686 433 729T492 806Q525 840 568 860T665 878Z" />
<glyph unicode="f" d="M293 0H565L718 877H1095L1132 1082L745 1081L758 1142Q768 1191 789 1228T841 1291Q880 1325 932 1341T1048 1356Q1096 1356 1143 1351T1238 1334L1280 1552Q1216 1563 1152 1572T1023 1582Q915 1583 825 1554T665 1469Q595 1413 549 1331T485
1142L474 1081L206 1082L169 877H445L293 0Z" />
<glyph unicode="g" d="M101 542L98 521Q92 461 95 398T113 276Q127 216 153 163T221 70Q261 29 316 5T444 -20Q489 -21 529 -12T607 16Q636 30 663 50T715 94L701 30Q689 -26 663 -70T599 -146Q561 -178 512 -194T405 -209Q330 -207 270 -175T165 -84L26 -250Q94
-335 195 -379T404 -426Q514 -429 610 -399T781 -308Q855 -249 904 -162T969 35L1147 1082L898 1083L862 978Q845 1002 824 1021T780 1055Q742 1078 698 1089T605 1102Q527 1104 462 1083T343 1022Q289 982 248 928T177 811Q147 748 128 679T101 542ZM371 521L373
542Q380 599 399 659T453 769Q486 818 536 848T654 878Q682 877 706 871T751 854Q773 841 791 821T822 772L740 311Q721 288 701 269T657 237Q630 221 598 213T530 206Q489 207 461 222T413 263Q394 287 384 318T370 385Q366 419 367 454T371 521Z" />
<glyph unicode="h" d="M455 931L570 1536H299L32 0H303L441 782Q463 804 487 821T537 851Q565 863 595 869T660 875Q709 873 741 856T791 810Q809 780 813 742T813 658L702 0H974L1083 655Q1092 740 1081 820T1033 963Q996 1025 932 1063T771 1102Q707 1103 652
1083T550 1027Q524 1007 500 983T455 931Z" />
<glyph unicode="i" d="M292 1082L252 855H551L442 226H143L104 0H961L1001 226H716L865 1082H292ZM619 1354Q619 1288 664 1248T774 1210Q839 1210 885 1252T931 1364Q931 1430 886 1470T776 1508Q708 1508 664 1464T619 1354Z" />
<glyph unicode="j" d="M381 1082L341 855H606L457 -25Q450 -66 434 -99T393 -155Q364 -183 323 -197T230 -210Q194 -209 157 -206T84 -194L48 -422Q93 -430 137 -434T227 -439Q331 -439 417 -414T569 -337Q634 -286 675 -208T731 -25L920 1082H381ZM676 1354Q676
1289 720 1249T830 1210Q894 1210 940 1252T987 1364Q987 1431 941 1470T831 1508Q765 1508 721 1464T676 1354Z" />
<glyph unicode="k" d="M514 445L733 0H1049L713 620L1199 1082H855L512 758L422 671L573 1536H302L35 0H306L362 320L514 445Z" />
<glyph unicode="l" d="M355 1536L315 1309H630L442 226H128L88 0H977L1017 226H716L943 1536H355Z" />
<glyph unicode="m" d="M388 1083L156 1082L-32 0H215L356 811Q363 823 371 833T389 853Q400 863 414 869T447 876Q469 876 480 867T497 843Q501 828 501 810T499 776L368 0H607L752 827Q760 835 767 843T783 857Q795 866 808 871T839 876Q860 876 871 866T888
841Q893 826 893 809T891 775L760 0H1007L1131 751Q1141 810 1137 881T1097 1019Q1078 1055 1041 1078T950 1102Q882 1103 833 1071T743 987Q738 1011 729 1030T705 1062Q683 1082 654 1092T589 1103Q510 1103 455 1060T363 950L388 1083Z" />
<glyph unicode="n" d="M32 0H304L439 770Q460 794 483 814T532 847Q559 862 590 869T655 876Q706 875 738 859T789 815Q806 787 810 749T810 663L700 0H971L1082 666Q1091 749 1080 826T1034 965Q999 1026 938 1063T782 1102Q719 1103 664 1086T561 1037Q529 1016
501 989T446 931L464 1083L220 1082L32 0Z" />
<glyph unicode="o" d="M91 544L89 523Q81 449 88 379T119 248Q138 199 165 159T231 80Q275 37 347 9T508 -21Q629 -24 728 19T901 139Q974 215 1019 316T1079 532L1082 554Q1090 629 1083 700T1052 835Q1033 885 1003 928T933 1008Q883 1051 816 1076T663 1102Q541
1105 442 1061T269 940Q196 863 151 761T91 544ZM360 523L362 544Q369 602 388 662T442 771Q475 820 524 850T643 878Q699 875 734 850T787 784Q811 729 812 668T809 553L807 532Q799 475 781 416T729 308Q695 259 646 229T528 200Q463 202 427 234T374 315Q357
362 356 417T360 523Z" />
<glyph unicode="p" d="M1069 537L1071 559Q1077 620 1076 683T1062 807Q1049 866 1025 919T961 1013Q921 1053 866 1076T737 1102Q683 1103 635 1090T544 1050Q521 1035 499 1016T455 975L472 1083L224 1082L-36 -416H235L332 96Q350 74 371 56T415 24Q452 3 494
-8T582 -21Q659 -23 722 -1T838 62Q889 102 928 156T997 273Q1025 336 1043 403T1069 537ZM799 559L797 538Q792 501 784 462T760 385Q745 343 722 307T666 246Q639 225 605 213T528 202Q495 203 467 211T417 236Q399 250 385 269T361 314L441 768Q458 791 477
809T518 842Q546 859 578 868T647 876Q685 875 711 862T756 827Q777 803 788 767T802 692Q805 658 804 624T799 559Z" />
<glyph unicode="q" d="M101 543L99 522Q92 463 94 400T110 278Q123 218 147 165T212 71Q251 30 306 6T433 -20Q482 -21 525 -10T608 23Q632 36 655 54T700 93L601 -416H873L1133 1082H891L849 971Q831 997 810 1018T763 1054Q727 1077 684 1089T593 1102Q516 1104
453 1083T338 1025Q286 987 245 933T175 815Q146 752 128 682T101 543ZM370 522L372 543Q377 581 386 620T410 698Q424 735 445 768T494 826Q523 851 560 865T643 879Q671 878 695 872T740 854Q761 842 778 822T808 774L726 311Q709 289 690 271T649 238Q622 220
590 211T520 203Q479 204 451 220T406 262Q388 287 379 319T367 387Q364 422 365 457T370 522Z" />
<glyph unicode="r" d="M962 1104Q903 1104 851 1090T751 1049Q704 1022 663 985T586 904L593 948L614 1082H362L174 0H445L558 651Q584 692 614 723T681 776Q724 802 774 815T882 827Q936 826 988 819T1092 798L1166 1075Q1115 1088 1065 1095T962 1104Z" />
<glyph unicode="s" d="M767 303Q760 265 736 241T678 204Q644 190 607 185T538 180Q497 180 461 189T396 218Q367 237 350 268T331 343L74 344Q74 252 113 185T217 72Q280 26 360 3T523 -21Q595 -22 677 -7T830 40Q911 79 968 146T1030 316Q1034 400 997 457T900
551Q876 566 849 578T794 600Q753 615 710 625T627 644Q601 649 566 656T501 677Q471 690 452 713T440 774Q446 810 468 834T522 874Q553 888 588 894T654 900Q691 900 723 892T780 866Q804 848 817 820T830 753L1100 752Q1100 843 1063 908T964 1017Q902 1060
824 1080T664 1102Q595 1103 521 1088T385 1043Q299 1003 241 932T179 760Q176 683 211 628T302 536Q349 504 398 484T509 447Q541 439 577 431T656 413Q677 408 698 399T734 379Q752 365 762 347T767 303Z" />
<glyph unicode="t" d="M762 1347H491L445 1082H205L169 877H409L328 385Q319 299 334 226T391 98Q431 44 496 13T653 -20Q732 -22 820 -9T981 44L972 237Q915 225 858 216T743 209Q696 210 667 226T622 269Q606 296 603 332T604 411L680 877H1072L1108 1082H716L762
1347Z" />
<glyph unicode="u" d="M425 -21Q522 -23 600 27T739 153L718 0H963L1151 1082H879L746 322Q727 296 706 276T660 240Q630 222 595 213T518 205Q466 206 438 227T399 281Q387 314 387 355T393 439L500 1082H229L122 442Q113 357 121 276T167 125Q202 62 264 21T425 -21Z" />
<glyph unicode="v" d="M381 0H635L1203 1082H912L567 329L539 248L537 321L418 1083L149 1082L381 0Z" />
<glyph unicode="w" d="M112 0H351L558 565L602 684L605 564L620 0H858L1234 1082H980L793 451L761 342V465L758 1082H576L354 448L317 344L323 452L356 1082H112V0Z" />
<glyph unicode="x" d="M632 745L459 1082H182L445 562L-15 0H293L587 353L773 0H1050L777 540L1221 1082H915L632 745Z" />
<glyph unicode="y" d="M557 442L425 1082H139L401 59L305 -80Q288 -100 271 -122T234 -164Q214 -183 191 -196T139 -211Q119 -213 97 -210T55 -206L0 -417Q35 -426 69 -432T140 -440Q211 -440 269 -419T376 -359Q424 -322 463 -271T536 -163L1283 1082H972L566
343L557 442Z" />
<glyph unicode="z" d="M433 223L1125 905L1153 1082H203L167 856H733L49 182L20 0H1008L1043 223H433Z" />
<glyph unicode="{" d="M774 -359L817 -200Q767 -196 743 -165T709 -90Q701 -44 704 10T713 105L734 269Q739 324 731 375T701 470Q679 514 643 550T558 613Q682 663 757 748T849 969L870 1132Q877 1183 886 1237T918 1336Q940 1381 978 1410T1080 1441L1061 1600Q960
1596 884 1557T755 1455Q701 1391 669 1308T624 1132L603 969Q585 842 512 781T312 717L292 517Q352 514 392 497T457 450Q480 419 487 374T488 270L467 106Q458 31 470 -45T513 -183Q548 -255 613 -304T774 -359Z" />
<glyph unicode="|" d="M529 -410L821 1456H650L358 -410H529Z" />
<glyph unicode="}" d="M193 -203L216 -364Q313 -358 388 -318T518 -214Q572 -150 604 -67T649 106L671 269Q689 395 762 456T961 519L981 719Q861 725 816 787T785 968L806 1132Q815 1212 803 1293T755 1440Q718 1506 656 1549T501 1596L455 1439Q498 1435 525
1416T564 1362Q580 1316 574 1251T560 1133L539 969Q533 907 543 850T581 744Q602 708 632 677T702 622Q583 571 512 486T424 269L403 106Q397 60 385 7T350 -93Q326 -140 289 -171T193 -203Z" />
<glyph unicode="~" d="M1128 753L947 771Q942 742 930 713T898 660Q879 636 854 621T795 605Q770 605 747 612T703 632Q682 644 663 659T627 691Q605 711 583 729T536 763Q493 791 444 807T339 825Q261 826 202 795T101 712Q60 660 37 594T8 457L180 436Q186 464
199 493T233 545Q253 568 279 583T339 598Q363 598 386 591T432 571Q454 559 473 544T510 512Q541 483 573 459T640 416Q674 398 712 388T795 377Q874 376 933 408T1034 494Q1075 547 1098 615T1128 753Z" />
<glyph unicode="&#xa1;" d="M492 565L311 -380H590L739 565H492ZM844 953Q844 1019 799 1062T687 1104Q616 1102 572 1055T528 941Q528 874 574 834T685 795Q750 795 797 839T844 953Z" />
<glyph unicode="&#xa2;" d="M555 201Q490 203 456 235T406 316Q400 333 397 353T392 393Q390 426 391 459T396 523L400 553Q405 591 414 629T438 705Q456 745 481 781T540 842Q567 860 600 869T673 878Q716 876 748 861T801 819Q822 793 831 758T837 682L1092
681Q1096 759 1078 826T1022 946Q984 998 929 1034T805 1088L846 1318H650L611 1097Q509 1084 426 1036T280 915Q218 842 180 749T129 553L126 522Q121 473 122 426T132 335Q138 296 150 260T180 190Q216 120 276 69T421 -4L378 -245H574L614 -17Q692 -8 764 22T894
103Q951 153 987 220T1028 371L774 369Q768 329 748 297T698 244Q668 222 632 211T555 201Z" />
<glyph unicode="&#xa3;" d="M541 585H834L873 806H572L600 1041Q606 1081 621 1119T662 1187Q687 1216 722 1233T802 1250Q845 1249 873 1234T920 1195Q937 1170 943 1137T948 1064L1211 1063Q1215 1155 1191 1230T1118 1360Q1069 1414 996 1444T829 1476Q729
1478 643 1447T490 1359Q424 1301 382 1220T328 1040L298 806H147L108 585H266L243 419Q238 389 231 359T211 303Q197 276 177 256T125 223L50 225L10 0H1035L1074 226L420 223Q464 268 489 319T523 433L541 585Z" />
<glyph unicode="&#xa4;" d="M800 76L879 -27L1031 107L940 228Q988 292 1018 363T1059 515Q1068 587 1061 656T1032 795L1169 909L1048 1065L911 946Q855 989 790 1011T655 1034Q579 1035 510 1012T375 949L288 1064L137 931L229 806Q175 738 142 663T98 502Q90
433 96 365T121 230L-1 129L119 -26L237 76Q294 29 362 5T504 -20Q586 -22 659 4T800 76ZM281 499Q286 542 300 584T338 664Q361 704 394 739T468 798Q506 822 550 834T643 846Q681 845 713 834T771 805Q809 777 834 739T869 653Q878 621 880 586T878 517Q872 473
857 430T819 349Q794 309 764 276T696 219Q657 193 612 180T516 167Q472 168 437 182T373 220Q346 245 325 279T292 352Q281 387 279 424T281 499Z" />
<glyph unicode="&#xa5;" d="M1030 1456L715 959L639 839V839L604 964L464 1456H175L424 742H156L127 576H460L438 452H106L77 287H410L360 0H634L684 287H1005L1034 452H712L734 570L735 576H1055L1084 742H848L1344 1456H1030Z" />
<glyph unicode="&#xa6;" d="M322 -270H569L707 525H460L322 -270ZM737 698L868 1456H621L490 698H737Z" />
<glyph unicode="&#xa7;" d="M1112 483Q1117 547 1103 598T1061 691Q1048 710 1032 727T996 761Q966 786 930 806T856 844Q821 859 784 872T709 897Q672 908 627 921T545 955Q507 976 485 1008T471 1091Q478 1137 505 1168T569 1218Q605 1237 648 1244T732 1251Q779
1250 816 1237T879 1197Q904 1172 916 1134T927 1048L1198 1047Q1202 1153 1170 1233T1078 1367Q1018 1420 934 1447T748 1476Q686 1477 623 1468T501 1439Q441 1419 389 1388T296 1314Q255 1270 229 1214T198 1088Q194 1039 200 993T223 906Q234 881 248 858T282
813Q244 792 211 767T153 713Q121 676 101 630T76 527Q69 432 102 365T193 250Q218 229 246 212T307 179Q347 159 390 143T478 113Q500 106 527 98T584 79Q613 68 639 54T686 21Q705 2 714 -22T719 -78Q711 -123 685 -153T621 -200Q584 -218 541 -225T459 -231Q410
-231 369 -220T299 -186Q269 -163 253 -127T240 -37H-35Q-38 -147 -1 -225T101 -355Q166 -407 254 -432T444 -458Q568 -460 691 -424T894 -301Q934 -258 959 -202T990 -76Q994 -22 987 28T957 124Q948 143 936 162T907 198Q942 217 972 239T1026 287Q1062 325 1084
374T1112 483ZM518 690Q539 683 559 677T601 663Q637 650 681 636T764 598Q802 574 825 540T839 457Q834 428 823 405T794 361Q779 343 761 329T720 301Q708 306 697 310T673 318Q652 325 630 332T585 346Q547 359 502 374T421 410Q385 433 365 467T353 553Q358
581 368 605T394 649Q407 667 425 682T467 709Q480 704 493 700T518 690Z" />
<glyph unicode="&#xa8;" d="M376 1361Q376 1308 415 1274T510 1240Q563 1242 602 1277T641 1369Q641 1423 601 1457T508 1491Q454 1489 415 1453T376 1361ZM842 1361Q842 1307 882 1273T975 1238Q1028 1240 1067 1276T1107 1369Q1107 1424 1065 1457T973 1490Q918
1489 880 1453T842 1361Z" />
<glyph unicode="&#xa9;" d="M810 442L699 441Q692 411 681 386T653 343Q636 325 612 316T553 308Q515 309 492 327T457 372Q445 399 442 431T441 495L449 587Q453 622 464 656T496 717Q515 744 544 760T613 777Q647 777 669 767T705 739Q718 721 722 696T726 640L841
639Q844 695 830 739T787 815Q758 844 716 860T618 878Q554 879 504 856T418 792Q382 752 361 699T333 586L325 496Q322 440 333 389T373 298Q400 258 443 233T548 207Q606 205 651 221T730 268Q763 298 783 342T810 442ZM168 534Q178 628 221 714T331 867Q397
933 483 972T669 1008Q760 1006 830 966T945 862Q990 797 1009 716T1019 550Q1008 457 966 370T858 215Q791 148 705 109T520 72Q427 74 357 114T242 220Q196 285 177 367T168 534ZM77 534Q66 430 92 332T176 156Q233 78 319 31T517 -20Q595 -22 667 -1T804 58Q867
96 920 149T1014 267Q1053 331 1078 403T1111 550Q1118 619 1109 686T1075 815Q1051 875 1013 927T923 1018Q872 1056 809 1078T672 1102Q593 1104 521 1084T385 1025Q321 987 268 934T175 817Q135 753 110 681T77 534Z" />
<glyph unicode="&#xaa;" d="M767 704H936Q929 751 930 795T940 886Q957 991 966 1043T990 1200Q998 1261 982 1311T934 1398Q902 1434 854 1454T743 1476Q686 1477 631 1464T531 1422Q486 1393 455 1349T416 1243L587 1230Q593 1253 604 1270T631 1300Q650 1315
675 1322T730 1328Q758 1327 776 1317T805 1290Q814 1273 817 1251T817 1203L809 1150L673 1151Q614 1151 553 1140T440 1102Q389 1075 356 1029T319 912Q317 861 332 820T376 751Q405 722 446 707T538 691Q607 690 663 718T764 798Q763 775 763 752T767 704ZM591
833Q571 833 553 837T521 852Q507 861 500 877T496 916Q499 947 516 969T559 1005Q584 1019 613 1025T670 1033H793L775 929Q759 908 738 891T693 860Q669 847 643 840T591 833Z" />
<glyph unicode="&#xab;" d="M375 479L690 892H497L163 502L161 482L375 93H536L375 479ZM743 479L1058 892H865L531 502L529 482L743 93H904L743 479Z" />
<glyph unicode="&#xac;" d="M951 374L1026 805H215L184 634H801L755 374H951Z" />
<glyph unicode="&#xad;" d="M1070 530L1110 755H300L261 530H1070Z" />
<glyph unicode="&#xae;" d="M76 534Q69 464 78 397T111 268Q135 207 173 155T263 65Q314 26 377 4T515 -21Q594 -23 666 -2T803 57Q866 95 919 148T1012 266Q1051 329 1076 401T1109 548Q1119 652 1094 750T1011 927Q954 1004 868 1051T670 1102Q591 1104 519
1084T383 1025Q319 986 266 933T173 816Q133 752 108 681T76 534ZM167 533Q177 627 219 714T329 867Q395 933 481 972T667 1008Q759 1006 829 966T944 862Q989 797 1008 716T1018 549Q1007 456 965 369T857 215Q790 148 704 109T518 73Q426 75 356 115T241 221Q196
285 177 366T167 533ZM480 484H596L670 232H779L684 516Q713 528 740 542T789 577Q810 596 824 622T840 682Q843 731 826 766T779 824Q749 846 709 856T626 868L428 869L328 232H440L480 484ZM495 585L525 769L625 768Q649 767 670 764T706 750Q721 740 728 723T730
677Q726 653 714 637T683 609Q665 597 644 592T601 585H495Z" />
<glyph unicode="&#xaf;" d="M1082 1292L1108 1456H398L372 1292H1082Z" />
<glyph unicode="&#xb0;" d="M451 1193Q448 1141 464 1094T512 1011Q543 975 587 953T685 930Q743 929 793 951T883 1013Q921 1052 944 1103T971 1211Q974 1261 959 1308T913 1393Q883 1430 840 1453T743 1477Q685 1478 634 1455T543 1393Q503 1353 479 1302T451
1193ZM593 1196Q596 1222 607 1246T638 1289Q657 1308 681 1319T732 1331Q757 1331 776 1321T809 1293Q821 1275 827 1253T830 1208Q827 1182 816 1159T788 1118Q770 1100 747 1089T697 1078Q673 1078 653 1087T619 1113Q605 1129 598 1150T593 1196Z" />
<glyph unicode="&#xb1;" d="M763 933L818 1284H579L524 933H194L157 701H488L430 331H669L727 701H1048L1084 933H763ZM908 0L948 227H112L72 0H908Z" />
<glyph unicode="&#xb2;" d="M918 667L946 826L610 828L742 919Q782 947 824 978T903 1048Q939 1085 963 1129T989 1228Q992 1290 970 1335T909 1410Q870 1439 819 1453T712 1469Q649 1470 594 1451T496 1396Q453 1360 427 1309T395 1194L593 1195Q598 1219 608
1239T634 1276Q649 1292 669 1301T717 1310Q754 1310 773 1289T785 1229Q780 1204 766 1181T733 1136Q713 1115 692 1096T652 1062L342 811L317 667H918Z" />
<glyph unicode="&#xb3;" d="M923 1008Q909 1027 889 1041T841 1064Q872 1078 900 1095T950 1134Q971 1155 984 1183T1000 1248Q1003 1308 978 1349T911 1417Q869 1443 817 1455T715 1468Q659 1468 607 1455T512 1415Q470 1387 443 1344T410 1241L612 1242Q627
1276 656 1291T722 1306Q739 1306 755 1302T783 1288Q795 1279 800 1265T803 1232Q799 1206 786 1189T754 1160Q735 1148 713 1142T667 1135H585L574 999H666Q687 998 707 994T742 981Q756 971 762 955T765 912Q761 888 749 870T718 841Q699 829 677 823T632 817Q607
817 587 823T553 841Q542 851 535 866T527 901L335 902Q335 840 358 794T420 718Q458 687 509 672T618 655Q674 654 733 666T842 708Q891 736 922 782T956 894Q957 928 949 957T923 1008Z" />
<glyph unicode="&#xb4;" d="M682 1478L456 1199H683L996 1478H682Z" />
<glyph unicode="&#xb5;" d="M521 1082H250L-10 -416H261L346 29Q385 4 428 -8T519 -21Q551 -21 580 -16T635 -1Q667 11 696 29T753 72L744 0H986L1174 1082H902L767 312Q746 285 722 265T670 231Q642 218 611 212T544 206Q510 207 486 217T448 245Q429 266 422
294T413 354Q412 380 414 407T419 460L521 1082Z" />
<glyph unicode="&#xb6;" d="M663 0H874L1126 1456L821 1457Q713 1457 618 1424T451 1330Q378 1268 333 1180T277 982Q268 881 293 797T372 653Q426 592 506 558T688 521L753 520L663 0Z" />
<glyph unicode="&#xb7;" d="M497 696Q497 631 541 590T650 551Q715 551 759 595T804 706Q804 771 760 812T651 852Q584 852 541 807T497 696Z" />
<glyph unicode="&#xb8;" d="M547 5L344 4L300 -136Q317 -138 340 -139T384 -147Q404 -154 416 -168T424 -208Q419 -234 406 -250T375 -277Q356 -287 334 -292T290 -298L284 -462Q323 -461 365 -456T448 -439Q488 -428 524 -410T588 -365Q615 -339 631 -302T648
-217Q649 -182 640 -153T611 -101Q596 -84 575 -72T526 -54L547 5Z" />
<glyph unicode="&#xb9;" d="M772 659L901 1445H877L508 1329L479 1166L672 1208L577 659H772Z" />
<glyph unicode="&#xba;" d="M347 1140L334 1024Q328 953 345 893T402 788Q440 743 497 718T627 690Q703 688 769 711T885 780Q935 824 967 886T1009 1024L1022 1141Q1029 1212 1012 1272T956 1378Q917 1422 860 1448T730 1476Q653 1478 587 1454T471 1385Q421
1340 389 1278T347 1140ZM509 1021L521 1141Q526 1180 540 1214T579 1275Q603 1301 636 1315T712 1329Q752 1328 780 1313T825 1271Q841 1245 846 1212T849 1142L836 1023Q831 984 817 950T778 889Q754 863 721 848T645 834Q604 835 577 851T534 893Q518 918 512
951T509 1021Z" />
<glyph unicode="&#xbb;" d="M445 926H284L444 539L131 127H323L658 518L659 538L445 926ZM810 926H649L809 539L496 127H688L1023 518L1024 538L810 926Z" />
<glyph unicode="&#xbc;" d="M441 751L557 1458H535L203 1354L177 1207L351 1245L265 751H441ZM1007 290L1080 710L901 713L520 273L508 144H810L785 0H962L988 144H1066L1094 291L1007 290ZM700 291L862 467L876 487L834 291H700ZM358 237L1010 1165L883 1238L232
310L358 237Z" />
<glyph unicode="&#xbd;" d="M402 752L518 1459H496L164 1355L138 1208L312 1246L226 752H402ZM1078 0L1103 143L801 145L919 227Q955 252 993 280T1064 342Q1097 376 1118 416T1142 505Q1144 561 1125 601T1070 668Q1035 695 989 708T892 722Q836 723 786 706T698
656Q659 624 636 578T607 474L785 475Q790 497 799 515T822 548Q836 563 854 571T897 579Q916 579 930 572T952 553Q958 544 959 532T958 506Q954 483 941 462T911 422Q893 403 874 386T838 356L559 130L537 0H1078ZM291 237L943 1165L816 1238L165 310L291 237Z"
/>
<glyph unicode="&#xbe;" d="M1054 290L1127 710L948 713L567 273L555 144H857L832 0H1009L1035 144H1113L1141 291L1054 290ZM747 291L909 467L923 487L881 291H747ZM329 1166L319 1044H401Q420 1043 438 1040T469 1027Q482 1019 488 1004T491 965Q487 944 476
928T448 901Q431 891 411 886T371 880Q348 880 330 885T298 903Q289 912 283 925T276 956H104Q104 901 124 860T180 790Q214 763 260 749T358 734Q409 733 462 744T560 781Q604 807 632 848T662 949Q663 983 654 1011T625 1061Q613 1074 597 1084T559 1102Q587
1115 612 1130T657 1165Q676 1184 688 1209T702 1268Q705 1322 682 1359T621 1420Q584 1443 538 1454T446 1466Q395 1466 348 1454T263 1418Q225 1393 201 1355T171 1262H353Q366 1293 392 1306T452 1320Q467 1320 481 1316T507 1304Q518 1296 522 1284T525 1253Q521
1230 510 1215T481 1188Q464 1178 444 1173T402 1166H329ZM439 237L1091 1165L964 1238L313 310L439 237Z" />
<glyph unicode="&#xbf;" d="M765 640L527 639Q521 603 514 574T493 520Q480 494 460 472T411 425Q358 382 304 337T204 239Q159 186 129 125T92 -10Q84 -103 110 -173T188 -292Q240 -340 313 -365T475 -393Q570 -395 653 -370T801 -294Q865 -244 905 -170T955
3L684 2Q677 -32 664 -61T630 -112Q605 -139 570 -154T490 -168Q456 -167 432 -156T392 -125Q376 -104 371 -75T370 -11Q377 36 400 79T457 163Q490 202 528 236T601 299Q649 337 678 372T726 448Q743 487 751 533T765 640ZM581 938Q582 878 617 846T711 816Q771
818 806 852T841 946Q841 1007 806 1043T709 1077Q646 1075 614 1037T581 938Z" />
<glyph unicode="&#xc0;" d="M774 304L803 0H1084L882 1456H633L-82 0H215L351 304H774ZM460 543L700 1076L751 543H460ZM883 1547L754 1826H472L685 1547H883Z" />
<glyph unicode="&#xc1;" d="M774 304L803 0H1084L882 1456H633L-82 0H215L351 304H774ZM460 543L700 1076L751 543H460ZM883 1823L657 1544H884L1197 1823H883Z" />
<glyph unicode="&#xc2;" d="M774 304L803 0H1084L882 1456H633L-82 0H215L351 304H774ZM460 543L700 1076L751 543H460ZM1156 1623L899 1865H744L431 1625L429 1593L648 1595L819 1720L945 1594L1154 1593L1156 1623Z" />
<glyph unicode="&#xc3;" d="M774 304L803 0H1084L882 1456H633L-82 0H215L351 304H774ZM460 543L700 1076L751 543H460ZM1174 1864L1045 1891Q1039 1870 1029 1852T1005 1819Q992 1808 976 1801T939 1794Q902 1793 870 1807T805 1838Q773 1855 740 1869T669 1884Q619
1884 579 1863T510 1806Q481 1770 464 1726T443 1636L577 1607Q583 1627 592 1645T614 1677Q627 1689 643 1697T682 1705Q719 1706 751 1692T816 1661Q848 1644 881 1630T952 1615Q1003 1615 1043 1636T1111 1694Q1139 1729 1155 1773T1174 1864Z" />
<glyph unicode="&#xc4;" d="M774 304L803 0H1084L882 1456H633L-82 0H215L351 304H774ZM460 543L700 1076L751 543H460ZM434 1710Q434 1657 473 1623T568 1589Q621 1591 660 1626T699 1718Q699 1772 659 1806T566 1840Q512 1838 473 1802T434 1710ZM900 1710Q900
1656 940 1622T1033 1587Q1086 1589 1125 1625T1165 1718Q1165 1773 1123 1806T1031 1839Q976 1838 938 1802T900 1710Z" />
<glyph unicode="&#xc5;" d="M774 304L803 0H1084L882 1456H633L-82 0H215L351 304H774ZM460 543L700 1076L751 543H460ZM604 1724Q603 1683 618 1649T660 1591Q686 1566 721 1553T797 1539Q840 1539 878 1553T947 1595Q976 1622 994 1659T1014 1740Q1015 1780
1001 1814T961 1875Q935 1900 901 1914T826 1929Q783 1929 744 1914T674 1872Q643 1844 624 1806T604 1724ZM716 1727Q718 1748 727 1767T752 1801Q767 1815 786 1823T826 1832Q846 1832 861 1824T887 1803Q896 1790 900 1773T902 1737Q900 1717 891 1698T868 1665Q854
1651 836 1643T796 1634Q778 1634 764 1640T739 1657Q726 1669 720 1687T716 1727Z" />
<glyph unicode="&#xc6;" d="M1039 0L1078 226H817L888 635H1098L1138 862H927L991 1228H1231L1271 1456H655L-63 0H221L371 334H575L517 0H1039ZM476 574L706 1086L616 574H476Z" />
<glyph unicode="&#xc7;" d="M1075 457L805 455Q794 399 772 353T716 273Q682 240 635 222T528 207Q475 209 441 230T387 287Q367 321 359 365T351 455Q350 501 354 546T363 628L391 827Q397 872 408 921T436 1018Q453 1065 477 1108T536 1183Q569 1214 613 1232T714
1249Q774 1247 812 1226T872 1169Q893 1134 900 1087T908 987L1180 986Q1177 1092 1149 1181T1067 1335Q1012 1400 929 1437T734 1477Q642 1479 564 1454T420 1384Q355 1339 304 1277T214 1141Q176 1068 151 987T113 825L84 629Q74 552 76 475T97 326Q114 254 147
192T231 83Q281 36 350 9T508 -21Q618 -24 715 9T887 106Q962 169 1011 258T1075 457ZM598 10L395 9L351 -131Q368 -133 391 -134T435 -142Q455 -149 467 -163T475 -203Q470 -229 457 -245T426 -272Q407 -282 385 -287T341 -293L335 -457Q374 -456 416 -451T499
-434Q539 -423 575 -405T639 -360Q666 -334 682 -297T699 -212Q700 -177 691 -148T662 -96Q647 -79 626 -67T577 -49L598 10Z" />
<glyph unicode="&#xc8;" d="M1004 638L1043 860H462L526 1227H1201L1241 1456H291L38 0H991L1031 227H352L424 638H1004ZM890 1538L761 1817H479L692 1538H890Z" />
<glyph unicode="&#xc9;" d="M1004 638L1043 860H462L526 1227H1201L1241 1456H291L38 0H991L1031 227H352L424 638H1004ZM890 1814L664 1535H891L1204 1814H890Z" />
<glyph unicode="&#xca;" d="M1004 638L1043 860H462L526 1227H1201L1241 1456H291L38 0H991L1031 227H352L424 638H1004ZM1163 1614L906 1856H751L438 1616L436 1584L655 1586L826 1711L952 1585L1161 1584L1163 1614Z" />
<glyph unicode="&#xcb;" d="M1004 638L1043 860H462L526 1227H1201L1241 1456H291L38 0H991L1031 227H352L424 638H1004ZM441 1701Q441 1648 480 1614T575 1580Q628 1582 667 1617T706 1709Q706 1763 666 1797T573 1831Q519 1829 480 1793T441 1701ZM907 1701Q907
1647 947 1613T1040 1578Q1093 1580 1132 1616T1172 1709Q1172 1764 1130 1797T1038 1830Q983 1829 945 1793T907 1701Z" />
<glyph unicode="&#xcc;" d="M335 1456L295 1229H564L390 226H122L82 0H901L941 226H665L839 1229H1114L1154 1456H335ZM851 1547L722 1826H440L653 1547H851Z" />
<glyph unicode="&#xcd;" d="M335 1456L295 1229H564L390 226H122L82 0H901L941 226H665L839 1229H1114L1154 1456H335ZM851 1823L625 1544H852L1165 1823H851Z" />
<glyph unicode="&#xce;" d="M335 1456L295 1229H564L390 226H122L82 0H901L941 226H665L839 1229H1114L1154 1456H335ZM1124 1623L867 1865H712L399 1625L397 1593L616 1595L787 1720L913 1594L1122 1593L1124 1623Z" />
<glyph unicode="&#xcf;" d="M335 1456L295 1229H564L390 226H122L82 0H901L941 226H665L839 1229H1114L1154 1456H335ZM402 1710Q402 1657 441 1623T536 1589Q589 1591 628 1626T667 1718Q667 1772 627 1806T534 1840Q480 1838 441 1802T402 1710ZM868 1710Q868
1656 908 1622T1001 1587Q1054 1589 1093 1625T1133 1718Q1133 1773 1091 1806T999 1839Q944 1838 906 1802T868 1710Z" />
<glyph unicode="&#xd0;" d="M32 0H426Q571 -1 692 52T906 196Q997 286 1056 408T1135 667L1152 787Q1161 857 1158 925T1139 1054Q1119 1137 1077 1209T975 1333Q912 1388 827 1420T636 1455L284 1456L174 823H-2L-34 643H143L32 0ZM639 643L671 823H450L521 1228L625
1227Q684 1224 727 1205T800 1153Q829 1120 846 1078T872 987Q879 939 879 889T872 790L855 667Q842 582 811 502T728 361Q677 299 605 262T438 224L347 226L419 643H639Z" />
<glyph unicode="&#xd1;" d="M955 0L1208 1456H933L767 511L538 1456H267L15 0H291L456 949L688 0H955ZM1154 1864L1025 1891Q1019 1870 1009 1852T985 1819Q972 1808 956 1801T919 1794Q882 1793 850 1807T785 1838Q753 1855 720 1869T649 1884Q599 1884 559 1863T490
1806Q461 1770 444 1726T423 1636L557 1607Q563 1627 572 1645T594 1677Q607 1689 623 1697T662 1705Q699 1706 731 1692T796 1661Q828 1644 861 1630T932 1615Q983 1615 1023 1636T1091 1694Q1119 1729 1135 1773T1154 1864Z" />
<glyph unicode="&#xd2;" d="M1119 622L1152 833Q1162 909 1158 986T1136 1134Q1117 1204 1083 1265T998 1374Q946 1420 878 1447T721 1476Q630 1478 553 1454T413 1385Q350 1340 300 1278T214 1144Q177 1072 153 993T116 833L83 621Q73 546 76 470T96 324Q113
253 145 192T227 84Q276 37 343 10T498 -20Q590 -22 668 2T811 70Q876 114 927 175T1018 309Q1056 381 1081 461T1119 622ZM874 836L841 621Q834 578 823 530T795 436Q777 389 752 347T694 274Q660 243 617 226T520 210Q469 212 437 233T385 289Q366 323 358 366T350
454Q349 499 352 542T361 620L394 835Q400 878 410 925T436 1019Q451 1065 474 1106T529 1180Q560 1211 602 1228T699 1244Q750 1242 784 1221T839 1167Q860 1134 870 1092T883 1006Q885 961 882 917T874 836ZM869 1568L740 1847H458L671 1568H869Z" />
<glyph unicode="&#xd3;" d="M1119 622L1152 833Q1162 909 1158 986T1136 1134Q1117 1204 1083 1265T998 1374Q946 1420 878 1447T721 1476Q630 1478 553 1454T413 1385Q350 1340 300 1278T214 1144Q177 1072 153 993T116 833L83 621Q73 546 76 470T96 324Q113
253 145 192T227 84Q276 37 343 10T498 -20Q590 -22 668 2T811 70Q876 114 927 175T1018 309Q1056 381 1081 461T1119 622ZM874 836L841 621Q834 578 823 530T795 436Q777 389 752 347T694 274Q660 243 617 226T520 210Q469 212 437 233T385 289Q366 323 358 366T350
454Q349 499 352 542T361 620L394 835Q400 878 410 925T436 1019Q451 1065 474 1106T529 1180Q560 1211 602 1228T699 1244Q750 1242 784 1221T839 1167Q860 1134 870 1092T883 1006Q885 961 882 917T874 836ZM869 1844L643 1565H870L1183 1844H869Z" />
<glyph unicode="&#xd4;" d="M1119 622L1152 833Q1162 909 1158 986T1136 1134Q1117 1204 1083 1265T998 1374Q946 1420 878 1447T721 1476Q630 1478 553 1454T413 1385Q350 1340 300 1278T214 1144Q177 1072 153 993T116 833L83 621Q73 546 76 470T96 324Q113
253 145 192T227 84Q276 37 343 10T498 -20Q590 -22 668 2T811 70Q876 114 927 175T1018 309Q1056 381 1081 461T1119 622ZM874 836L841 621Q834 578 823 530T795 436Q777 389 752 347T694 274Q660 243 617 226T520 210Q469 212 437 233T385 289Q366 323 358 366T350
454Q349 499 352 542T361 620L394 835Q400 878 410 925T436 1019Q451 1065 474 1106T529 1180Q560 1211 602 1228T699 1244Q750 1242 784 1221T839 1167Q860 1134 870 1092T883 1006Q885 961 882 917T874 836ZM1142 1644L885 1886H730L417 1646L415 1614L634 1616L805
1741L931 1615L1140 1614L1142 1644Z" />
<glyph unicode="&#xd5;" d="M1119 622L1152 833Q1162 909 1158 986T1136 1134Q1117 1204 1083 1265T998 1374Q946 1420 878 1447T721 1476Q630 1478 553 1454T413 1385Q350 1340 300 1278T214 1144Q177 1072 153 993T116 833L83 621Q73 546 76 470T96 324Q113
253 145 192T227 84Q276 37 343 10T498 -20Q590 -22 668 2T811 70Q876 114 927 175T1018 309Q1056 381 1081 461T1119 622ZM874 836L841 621Q834 578 823 530T795 436Q777 389 752 347T694 274Q660 243 617 226T520 210Q469 212 437 233T385 289Q366 323 358 366T350
454Q349 499 352 542T361 620L394 835Q400 878 410 925T436 1019Q451 1065 474 1106T529 1180Q560 1211 602 1228T699 1244Q750 1242 784 1221T839 1167Q860 1134 870 1092T883 1006Q885 961 882 917T874 836ZM1160 1885L1031 1912Q1025 1891 1015 1873T991 1840Q978
1829 962 1822T925 1815Q888 1814 856 1828T791 1859Q759 1876 726 1890T655 1905Q605 1905 565 1884T496 1827Q467 1791 450 1747T429 1657L563 1628Q569 1648 578 1666T600 1698Q613 1710 629 1718T668 1726Q705 1727 737 1713T802 1682Q834 1665 867 1651T938
1636Q989 1636 1029 1657T1097 1715Q1125 1750 1141 1794T1160 1885Z" />
<glyph unicode="&#xd6;" d="M1119 622L1152 833Q1162 909 1158 986T1136 1134Q1117 1204 1083 1265T998 1374Q946 1420 878 1447T721 1476Q630 1478 553 1454T413 1385Q350 1340 300 1278T214 1144Q177 1072 153 993T116 833L83 621Q73 546 76 470T96 324Q113
253 145 192T227 84Q276 37 343 10T498 -20Q590 -22 668 2T811 70Q876 114 927 175T1018 309Q1056 381 1081 461T1119 622ZM874 836L841 621Q834 578 823 530T795 436Q777 389 752 347T694 274Q660 243 617 226T520 210Q469 212 437 233T385 289Q366 323 358 366T350
454Q349 499 352 542T361 620L394 835Q400 878 410 925T436 1019Q451 1065 474 1106T529 1180Q560 1211 602 1228T699 1244Q750 1242 784 1221T839 1167Q860 1134 870 1092T883 1006Q885 961 882 917T874 836ZM420 1731Q420 1678 459 1644T554 1610Q607 1612 646
1647T685 1739Q685 1793 645 1827T552 1861Q498 1859 459 1823T420 1731ZM886 1731Q886 1677 926 1643T1019 1608Q1072 1610 1111 1646T1151 1739Q1151 1794 1109 1827T1017 1860Q962 1859 924 1823T886 1731Z" />
<glyph unicode="&#xd7;" d="M114 382L255 207L607 519L850 207L1028 360L782 676L1137 991L996 1165L644 853L401 1165L223 1012L469 696L114 382Z" />
<glyph unicode="&#xd8;" d="M1124 622L1157 833Q1164 889 1164 946T1156 1058Q1148 1113 1132 1164T1090 1261L1276 1518H1082L987 1386Q964 1405 938 1420T882 1447Q848 1460 809 1467T726 1476Q635 1478 558 1454T418 1385Q355 1340 305 1278T219 1144Q182 1072
158 993T121 833L88 621Q84 592 82 562T80 502Q80 426 94 352T139 212L-82 -95H111L236 78Q286 33 351 8T503 -20Q595 -22 673 2T816 70Q881 114 932 175T1023 309Q1061 381 1086 461T1124 622ZM366 620L399 835Q405 878 415 925T441 1019Q456 1065 479 1106T534
1180Q565 1211 607 1228T704 1244Q728 1243 748 1238T786 1223Q801 1215 813 1204T836 1178L355 511Q356 524 357 537T359 563Q361 578 362 592T366 620ZM879 836L846 621Q839 578 828 530T800 436Q782 389 757 347T699 274Q665 243 622 226T525 210Q474 212 442
233T389 290L888 981Q889 942 886 905T879 836Z" />
<glyph unicode="&#xd9;" d="M1217 1456H945L780 490Q772 438 754 386T706 293Q675 252 630 228T523 206Q467 209 437 237T393 308Q379 350 379 398T383 490L545 1456H271L106 490Q94 388 113 296T181 135Q230 65 309 24T499 -20Q618 -23 713 14T879 121Q949 189
993 284T1054 492L1217 1456ZM873 1544L744 1823H462L675 1544H873Z" />
<glyph unicode="&#xda;" d="M1217 1456H945L780 490Q772 438 754 386T706 293Q675 252 630 228T523 206Q467 209 437 237T393 308Q379 350 379 398T383 490L545 1456H271L106 490Q94 388 113 296T181 135Q230 65 309 24T499 -20Q618 -23 713 14T879 121Q949 189
993 284T1054 492L1217 1456ZM873 1820L647 1541H874L1187 1820H873Z" />
<glyph unicode="&#xdb;" d="M1217 1456H945L780 490Q772 438 754 386T706 293Q675 252 630 228T523 206Q467 209 437 237T393 308Q379 350 379 398T383 490L545 1456H271L106 490Q94 388 113 296T181 135Q230 65 309 24T499 -20Q618 -23 713 14T879 121Q949 189
993 284T1054 492L1217 1456ZM1146 1620L889 1862H734L421 1622L419 1590L638 1592L809 1717L935 1591L1144 1590L1146 1620Z" />
<glyph unicode="&#xdc;" d="M1217 1456H945L780 490Q772 438 754 386T706 293Q675 252 630 228T523 206Q467 209 437 237T393 308Q379 350 379 398T383 490L545 1456H271L106 490Q94 388 113 296T181 135Q230 65 309 24T499 -20Q618 -23 713 14T879 121Q949 189
993 284T1054 492L1217 1456ZM424 1707Q424 1654 463 1620T558 1586Q611 1588 650 1623T689 1715Q689 1769 649 1803T556 1837Q502 1835 463 1799T424 1707ZM890 1707Q890 1653 930 1619T1023 1584Q1076 1586 1115 1622T1155 1715Q1155 1770 1113 1803T1021 1836Q966
1835 928 1799T890 1707Z" />
<glyph unicode="&#xdd;" d="M636 787L474 1456H186L457 530L366 0H639L725 491L1343 1456H1030L636 787ZM877 1823L651 1544H878L1191 1823H877Z" />
<glyph unicode="&#xde;" d="M552 1456H280L27 0H299L350 289L584 288Q691 288 791 316T971 401Q1050 458 1101 543T1163 745Q1172 851 1139 932T1044 1069Q981 1124 895 1153T710 1184L505 1185L552 1456ZM466 961L699 960Q748 958 786 943T851 900Q876 872 887
833T891 744Q883 686 857 643T790 571Q750 541 700 527T595 511L388 513L466 961Z" />
<glyph unicode="&#xdf;" d="M323 0L504 1073Q510 1115 524 1163T563 1252Q587 1293 624 1319T715 1342Q745 1340 766 1326T800 1291Q812 1269 816 1243T818 1190Q812 1136 788 1091T737 1003Q709 959 686 913T658 812Q654 765 667 725T703 647Q724 610 750 575T797
504Q818 468 830 431T835 352Q831 324 820 299T792 254Q772 231 743 217T677 201Q623 199 569 214T468 258L391 39Q453 3 526 -9T669 -23Q759 -24 835 1T970 75Q1027 124 1061 195T1102 359Q1105 403 1092 444T1057 524Q1035 562 1010 599T965 673Q945 709 934
746T930 823Q940 877 965 921T1017 1010Q1044 1054 1066 1100T1093 1204Q1099 1284 1077 1349T1009 1461Q963 1508 899 1534T756 1562Q645 1565 555 1529T399 1426Q333 1360 292 1270T236 1076L52 0H323Z" />
<glyph unicode="&#xe0;" d="M700 0H969L970 18Q949 76 953 137T967 258L1042 723Q1051 816 1023 886T939 1004Q883 1051 807 1076T646 1103Q565 1104 483 1085T332 1023Q264 980 219 915T168 759L439 761Q446 794 460 819T497 861Q520 879 550 887T617 895Q656
894 687 883T739 850Q759 828 767 797T770 727L757 660L601 662Q540 662 478 655T356 631Q297 614 245 587T153 518Q113 477 89 422T61 295Q58 223 83 165T154 67Q199 26 260 4T390 -20Q448 -21 500 -8T598 32Q622 46 645 63T690 101Q689 75 690 51T700 0ZM461
194Q432 194 408 202T366 225Q349 240 341 263T337 317Q341 344 350 366T372 405Q388 426 410 440T455 467Q491 482 532 489T613 496L736 495L702 308Q683 285 661 266T614 233Q580 213 541 203T461 194ZM791 1225L662 1504H380L593 1225H791Z" />
<glyph unicode="&#xe1;" d="M700 0H969L970 18Q949 76 953 137T967 258L1042 723Q1051 816 1023 886T939 1004Q883 1051 807 1076T646 1103Q565 1104 483 1085T332 1023Q264 980 219 915T168 759L439 761Q446 794 460 819T497 861Q520 879 550 887T617 895Q656
894 687 883T739 850Q759 828 767 797T770 727L757 660L601 662Q540 662 478 655T356 631Q297 614 245 587T153 518Q113 477 89 422T61 295Q58 223 83 165T154 67Q199 26 260 4T390 -20Q448 -21 500 -8T598 32Q622 46 645 63T690 101Q689 75 690 51T700 0ZM461
194Q432 194 408 202T366 225Q349 240 341 263T337 317Q341 344 350 366T372 405Q388 426 410 440T455 467Q491 482 532 489T613 496L736 495L702 308Q683 285 661 266T614 233Q580 213 541 203T461 194ZM791 1501L565 1222H792L1105 1501H791Z" />
<glyph unicode="&#xe2;" d="M700 0H969L970 18Q949 76 953 137T967 258L1042 723Q1051 816 1023 886T939 1004Q883 1051 807 1076T646 1103Q565 1104 483 1085T332 1023Q264 980 219 915T168 759L439 761Q446 794 460 819T497 861Q520 879 550 887T617 895Q656
894 687 883T739 850Q759 828 767 797T770 727L757 660L601 662Q540 662 478 655T356 631Q297 614 245 587T153 518Q113 477 89 422T61 295Q58 223 83 165T154 67Q199 26 260 4T390 -20Q448 -21 500 -8T598 32Q622 46 645 63T690 101Q689 75 690 51T700 0ZM461
194Q432 194 408 202T366 225Q349 240 341 263T337 317Q341 344 350 366T372 405Q388 426 410 440T455 467Q491 482 532 489T613 496L736 495L702 308Q683 285 661 266T614 233Q580 213 541 203T461 194ZM1064 1301L807 1543H652L339 1303L337 1271L556 1273L727
1398L853 1272L1062 1271L1064 1301Z" />
<glyph unicode="&#xe3;" d="M700 0H969L970 18Q949 76 953 137T967 258L1042 723Q1051 816 1023 886T939 1004Q883 1051 807 1076T646 1103Q565 1104 483 1085T332 1023Q264 980 219 915T168 759L439 761Q446 794 460 819T497 861Q520 879 550 887T617 895Q656
894 687 883T739 850Q759 828 767 797T770 727L757 660L601 662Q540 662 478 655T356 631Q297 614 245 587T153 518Q113 477 89 422T61 295Q58 223 83 165T154 67Q199 26 260 4T390 -20Q448 -21 500 -8T598 32Q622 46 645 63T690 101Q689 75 690 51T700 0ZM461
194Q432 194 408 202T366 225Q349 240 341 263T337 317Q341 344 350 366T372 405Q388 426 410 440T455 467Q491 482 532 489T613 496L736 495L702 308Q683 285 661 266T614 233Q580 213 541 203T461 194ZM1082 1542L953 1569Q947 1548 937 1530T913 1497Q900 1486
884 1479T847 1472Q810 1471 778 1485T713 1516Q681 1533 648 1547T577 1562Q527 1562 487 1541T418 1484Q389 1448 372 1404T351 1314L485 1285Q491 1305 500 1323T522 1355Q535 1367 551 1375T590 1383Q627 1384 659 1370T724 1339Q756 1322 789 1308T860 1293Q911
1293 951 1314T1019 1372Q1047 1407 1063 1451T1082 1542Z" />
<glyph unicode="&#xe4;" d="M700 0H969L970 18Q949 76 953 137T967 258L1042 723Q1051 816 1023 886T939 1004Q883 1051 807 1076T646 1103Q565 1104 483 1085T332 1023Q264 980 219 915T168 759L439 761Q446 794 460 819T497 861Q520 879 550 887T617 895Q656
894 687 883T739 850Q759 828 767 797T770 727L757 660L601 662Q540 662 478 655T356 631Q297 614 245 587T153 518Q113 477 89 422T61 295Q58 223 83 165T154 67Q199 26 260 4T390 -20Q448 -21 500 -8T598 32Q622 46 645 63T690 101Q689 75 690 51T700 0ZM461
194Q432 194 408 202T366 225Q349 240 341 263T337 317Q341 344 350 366T372 405Q388 426 410 440T455 467Q491 482 532 489T613 496L736 495L702 308Q683 285 661 266T614 233Q580 213 541 203T461 194ZM599 1388Q599 1335 638 1301T733 1267Q786 1269 825 1304T864
1396Q864 1450 824 1484T731 1518Q677 1516 638 1480T599 1388ZM1065 1388Q1065 1334 1105 1300T1198 1265Q1251 1267 1290 1303T1330 1396Q1330 1451 1288 1484T1196 1517Q1141 1516 1103 1480T1065 1388Z" />
<glyph unicode="&#xe5;" d="M700 0H969L970 18Q949 76 953 137T967 258L1042 723Q1051 816 1023 886T939 1004Q883 1051 807 1076T646 1103Q565 1104 483 1085T332 1023Q264 980 219 915T168 759L439 761Q446 794 460 819T497 861Q520 879 550 887T617 895Q656
894 687 883T739 850Q759 828 767 797T770 727L757 660L601 662Q540 662 478 655T356 631Q297 614 245 587T153 518Q113 477 89 422T61 295Q58 223 83 165T154 67Q199 26 260 4T390 -20Q448 -21 500 -8T598 32Q622 46 645 63T690 101Q689 75 690 51T700 0ZM461
194Q432 194 408 202T366 225Q349 240 341 263T337 317Q341 344 350 366T372 405Q388 426 410 440T455 467Q491 482 532 489T613 496L736 495L702 308Q683 285 661 266T614 233Q580 213 541 203T461 194ZM512 1402Q511 1361 526 1327T568 1269Q594 1244 629 1231T705
1217Q748 1217 786 1231T855 1273Q884 1300 902 1337T922 1418Q923 1458 909 1492T869 1553Q843 1578 809 1592T734 1607Q691 1607 652 1592T582 1550Q551 1522 532 1484T512 1402ZM624 1405Q626 1426 635 1445T660 1479Q675 1493 694 1501T734 1510Q754 1510 769
1502T795 1481Q804 1468 808 1451T810 1415Q808 1395 799 1376T776 1343Q762 1329 744 1321T704 1312Q686 1312 672 1318T647 1335Q634 1347 628 1365T624 1405Z" />
<glyph unicode="&#xe6;" d="M751 -19Q787 -20 826 -17T905 -4Q943 4 978 19T1044 58L1006 252Q980 241 954 232T902 216Q881 210 859 208T814 206Q770 207 741 221T697 261Q686 279 683 304T683 362L698 454H1134L1166 660Q1182 760 1171 835T1130 968Q1099 1025
1045 1062T909 1101Q845 1103 789 1084T680 1028Q636 1070 580 1086T464 1104Q389 1105 326 1084T215 1021Q168 979 139 920T103 785L361 775Q365 796 372 815T391 849Q402 863 419 871T461 878Q483 877 494 866T509 839Q513 822 513 804T509 769L485 648H477Q388
651 304 633T152 571Q84 527 41 458T-8 289Q-11 223 5 167T58 69Q93 28 145 5T267 -20Q309 -21 346 -10T416 21Q440 36 463 55T508 98Q528 67 555 46T614 10Q645 -5 680 -11T751 -19ZM864 879Q890 878 904 867T926 838Q932 820 932 799T931 757L916 643L720 642L732
705Q737 734 744 765T767 822Q781 848 804 864T864 879ZM342 185Q319 184 303 191T278 213Q268 226 265 244T264 283Q268 320 286 354T332 415Q360 440 395 454T469 467L473 466L411 210Q403 206 395 202T378 194Q370 191 361 189T342 185Z" />
<glyph unicode="&#xe7;" d="M531 201Q495 202 469 213T424 242Q398 268 386 305T369 383Q366 418 367 454T372 523L376 553Q382 601 395 650T432 743Q444 767 463 791T504 833Q532 855 568 867T649 878Q692 876 724 861T777 819Q798 793 807 758T813 682L1068
681Q1073 774 1047 850T968 983Q915 1038 840 1069T672 1102Q557 1105 462 1066T295 955Q215 873 167 772T105 553L102 522Q96 465 99 410T114 304Q132 226 173 161T277 50Q323 18 383 -1T518 -21Q605 -23 689 3T843 81Q911 132 955 205T1004 371L750 369Q744 329
724 297T674 244Q644 222 608 211T531 201ZM598 10L395 9L351 -131Q368 -133 391 -134T435 -142Q455 -149 467 -163T475 -203Q470 -229 457 -245T426 -272Q407 -282 385 -287T341 -293L335 -457Q374 -456 416 -451T499 -434Q539 -423 575 -405T639 -360Q666 -334
682 -297T699 -212Q700 -177 691 -148T662 -96Q647 -79 626 -67T577 -49L598 10Z" />
<glyph unicode="&#xe8;" d="M556 -20Q685 -21 807 27T1002 175L879 326Q821 266 746 234T585 204Q531 205 489 224T419 277Q390 310 375 354T362 451H1069L1087 569Q1100 674 1082 769T1013 938Q962 1011 880 1055T685 1102Q604 1104 531 1084T396 1026Q347 996
304 956T225 869Q174 799 142 715T99 541L95 500Q85 390 114 296T205 133Q266 63 355 22T556 -20ZM665 878Q710 876 744 860T802 815Q824 787 833 749T835 667L830 642H389Q408 686 433 729T492 806Q525 840 568 860T665 878ZM796 1226L667 1505H385L598 1226H796Z"
/>
<glyph unicode="&#xe9;" d="M556 -20Q685 -21 807 27T1002 175L879 326Q821 266 746 234T585 204Q531 205 489 224T419 277Q390 310 375 354T362 451H1069L1087 569Q1100 674 1082 769T1013 938Q962 1011 880 1055T685 1102Q604 1104 531 1084T396 1026Q347 996
304 956T225 869Q174 799 142 715T99 541L95 500Q85 390 114 296T205 133Q266 63 355 22T556 -20ZM665 878Q710 876 744 860T802 815Q824 787 833 749T835 667L830 642H389Q408 686 433 729T492 806Q525 840 568 860T665 878ZM796 1502L570 1223H797L1110 1502H796Z"
/>
<glyph unicode="&#xea;" d="M556 -20Q685 -21 807 27T1002 175L879 326Q821 266 746 234T585 204Q531 205 489 224T419 277Q390 310 375 354T362 451H1069L1087 569Q1100 674 1082 769T1013 938Q962 1011 880 1055T685 1102Q604 1104 531 1084T396 1026Q347 996
304 956T225 869Q174 799 142 715T99 541L95 500Q85 390 114 296T205 133Q266 63 355 22T556 -20ZM665 878Q710 876 744 860T802 815Q824 787 833 749T835 667L830 642H389Q408 686 433 729T492 806Q525 840 568 860T665 878ZM1069 1302L812 1544H657L344 1304L342
1272L561 1274L732 1399L858 1273L1067 1272L1069 1302Z" />
<glyph unicode="&#xeb;" d="M556 -20Q685 -21 807 27T1002 175L879 326Q821 266 746 234T585 204Q531 205 489 224T419 277Q390 310 375 354T362 451H1069L1087 569Q1100 674 1082 769T1013 938Q962 1011 880 1055T685 1102Q604 1104 531 1084T396 1026Q347 996
304 956T225 869Q174 799 142 715T99 541L95 500Q85 390 114 296T205 133Q266 63 355 22T556 -20ZM665 878Q710 876 744 860T802 815Q824 787 833 749T835 667L830 642H389Q408 686 433 729T492 806Q525 840 568 860T665 878ZM604 1389Q604 1336 643 1302T738 1268Q791
1270 830 1305T869 1397Q869 1451 829 1485T736 1519Q682 1517 643 1481T604 1389ZM1070 1389Q1070 1335 1110 1301T1203 1266Q1256 1268 1295 1304T1335 1397Q1335 1452 1293 1485T1201 1518Q1146 1517 1108 1481T1070 1389Z" />
<glyph unicode="&#xec;" d="M276 1082L236 855H551L442 226H128L88 0H977L1017 226H716L865 1082H276ZM1112 1199L983 1478H701L914 1199H1112Z" />
<glyph unicode="&#xed;" d="M276 1082L236 855H551L442 226H128L88 0H977L1017 226H716L865 1082H276ZM856 1476L630 1197H857L1170 1476H856Z" />
<glyph unicode="&#xee;" d="M276 1082L236 855H551L442 226H128L88 0H977L1017 226H716L865 1082H276ZM1129 1275L872 1517H717L404 1277L402 1245L621 1247L792 1372L918 1246L1127 1245L1129 1275Z" />
<glyph unicode="&#xef;" d="M276 1082L236 855H551L442 226H128L88 0H977L1017 226H716L865 1082H276ZM407 1362Q407 1309 446 1275T541 1241Q594 1243 633 1278T672 1370Q672 1424 632 1458T539 1492Q485 1490 446 1454T407 1362ZM873 1362Q873 1308 913 1274T1006
1239Q1059 1241 1098 1277T1138 1370Q1138 1425 1096 1458T1004 1491Q949 1490 911 1454T873 1362Z" />
<glyph unicode="&#xf0;" d="M1084 887Q1077 983 1053 1076T987 1262L1172 1353L1112 1477L894 1365Q838 1419 773 1455T633 1514L524 1300Q556 1286 586 1271T644 1233L423 1121L485 998L742 1131Q776 1072 792 1010T811 878Q783 899 754 915T692 943Q661 954
628 960T561 967Q448 970 353 933T185 827Q113 759 69 665T16 460Q7 358 36 272T124 121Q182 56 266 19T451 -21Q537 -23 613 -2T754 61Q818 101 871 157T964 282Q1004 349 1030 424T1067 579L1076 647Q1084 709 1086 769T1084 887ZM696 315Q657 263 602 231T475
201Q421 203 383 225T322 284Q298 320 289 365T286 460Q292 514 313 567T370 663Q404 705 452 731T560 758Q592 758 627 754T697 739Q730 728 759 710T809 664L806 650L791 554Q785 519 775 484T751 413Q740 387 726 362T696 315Z" />
<glyph unicode="&#xf1;" d="M32 0H304L439 770Q460 794 483 814T532 847Q559 862 590 869T655 876Q706 875 738 859T789 815Q806 787 810 749T810 663L700 0H971L1082 666Q1091 749 1080 826T1034 965Q999 1026 938 1063T782 1102Q719 1103 664 1086T561 1037Q529
1016 501 989T446 931L464 1083L220 1082L32 0ZM1093 1542L964 1569Q958 1548 948 1530T924 1497Q911 1486 895 1479T858 1472Q821 1471 789 1485T724 1516Q692 1533 659 1547T588 1562Q538 1562 498 1541T429 1484Q400 1448 383 1404T362 1314L496 1285Q502 1305
511 1323T533 1355Q546 1367 562 1375T601 1383Q638 1384 670 1370T735 1339Q767 1322 800 1308T871 1293Q922 1293 962 1314T1030 1372Q1058 1407 1074 1451T1093 1542Z" />
<glyph unicode="&#xf2;" d="M91 544L89 523Q81 449 88 379T119 248Q138 199 165 159T231 80Q275 37 347 9T508 -21Q629 -24 728 19T901 139Q974 215 1019 316T1079 532L1082 554Q1090 629 1083 700T1052 835Q1033 885 1003 928T933 1008Q883 1051 816 1076T663
1102Q541 1105 442 1061T269 940Q196 863 151 761T91 544ZM360 523L362 544Q369 602 388 662T442 771Q475 820 524 850T643 878Q699 875 734 850T787 784Q811 729 812 668T809 553L807 532Q799 475 781 416T729 308Q695 259 646 229T528 200Q463 202 427 234T374
315Q357 362 356 417T360 523ZM815 1225L686 1504H404L617 1225H815Z" />
<glyph unicode="&#xf3;" d="M91 544L89 523Q81 449 88 379T119 248Q138 199 165 159T231 80Q275 37 347 9T508 -21Q629 -24 728 19T901 139Q974 215 1019 316T1079 532L1082 554Q1090 629 1083 700T1052 835Q1033 885 1003 928T933 1008Q883 1051 816 1076T663
1102Q541 1105 442 1061T269 940Q196 863 151 761T91 544ZM360 523L362 544Q369 602 388 662T442 771Q475 820 524 850T643 878Q699 875 734 850T787 784Q811 729 812 668T809 553L807 532Q799 475 781 416T729 308Q695 259 646 229T528 200Q463 202 427 234T374
315Q357 362 356 417T360 523ZM815 1501L589 1222H816L1129 1501H815Z" />
<glyph unicode="&#xf4;" d="M91 544L89 523Q81 449 88 379T119 248Q138 199 165 159T231 80Q275 37 347 9T508 -21Q629 -24 728 19T901 139Q974 215 1019 316T1079 532L1082 554Q1090 629 1083 700T1052 835Q1033 885 1003 928T933 1008Q883 1051 816 1076T663
1102Q541 1105 442 1061T269 940Q196 863 151 761T91 544ZM360 523L362 544Q369 602 388 662T442 771Q475 820 524 850T643 878Q699 875 734 850T787 784Q811 729 812 668T809 553L807 532Q799 475 781 416T729 308Q695 259 646 229T528 200Q463 202 427 234T374
315Q357 362 356 417T360 523ZM1088 1301L831 1543H676L363 1303L361 1271L580 1273L751 1398L877 1272L1086 1271L1088 1301Z" />
<glyph unicode="&#xf5;" d="M91 544L89 523Q81 449 88 379T119 248Q138 199 165 159T231 80Q275 37 347 9T508 -21Q629 -24 728 19T901 139Q974 215 1019 316T1079 532L1082 554Q1090 629 1083 700T1052 835Q1033 885 1003 928T933 1008Q883 1051 816 1076T663
1102Q541 1105 442 1061T269 940Q196 863 151 761T91 544ZM360 523L362 544Q369 602 388 662T442 771Q475 820 524 850T643 878Q699 875 734 850T787 784Q811 729 812 668T809 553L807 532Q799 475 781 416T729 308Q695 259 646 229T528 200Q463 202 427 234T374
315Q357 362 356 417T360 523ZM1106 1542L977 1569Q971 1548 961 1530T937 1497Q924 1486 908 1479T871 1472Q834 1471 802 1485T737 1516Q705 1533 672 1547T601 1562Q551 1562 511 1541T442 1484Q413 1448 396 1404T375 1314L509 1285Q515 1305 524 1323T546
1355Q559 1367 575 1375T614 1383Q651 1384 683 1370T748 1339Q780 1322 813 1308T884 1293Q935 1293 975 1314T1043 1372Q1071 1407 1087 1451T1106 1542Z" />
<glyph unicode="&#xf6;" d="M91 544L89 523Q81 449 88 379T119 248Q138 199 165 159T231 80Q275 37 347 9T508 -21Q629 -24 728 19T901 139Q974 215 1019 316T1079 532L1082 554Q1090 629 1083 700T1052 835Q1033 885 1003 928T933 1008Q883 1051 816 1076T663
1102Q541 1105 442 1061T269 940Q196 863 151 761T91 544ZM360 523L362 544Q369 602 388 662T442 771Q475 820 524 850T643 878Q699 875 734 850T787 784Q811 729 812 668T809 553L807 532Q799 475 781 416T729 308Q695 259 646 229T528 200Q463 202 427 234T374
315Q357 362 356 417T360 523ZM623 1388Q623 1335 662 1301T757 1267Q810 1269 849 1304T888 1396Q888 1450 848 1484T755 1518Q701 1516 662 1480T623 1388ZM1089 1388Q1089 1334 1129 1300T1222 1265Q1275 1267 1314 1303T1354 1396Q1354 1451 1312 1484T1220
1517Q1165 1516 1127 1480T1089 1388Z" />
<glyph unicode="&#xf7;" d="M1094 573L1134 800H139L99 573H1094ZM536 1084Q536 1023 579 985T683 947Q743 947 787 987T832 1094Q832 1156 788 1194T684 1231Q619 1231 578 1189T536 1084ZM393 273Q393 211 437 174T541 136Q601 136 645 176T690 283Q690 345
647 384T541 421Q476 421 435 379T393 273Z" />
<glyph unicode="&#xf8;" d="M91 544L89 523Q82 458 87 397T108 280Q124 224 152 176T219 90L70 -141H237L337 13Q374 -2 416 -11T508 -21Q629 -24 728 19T901 139Q974 215 1019 316T1079 532L1082 554Q1089 618 1085 679T1064 796Q1049 848 1024 894T962 979L1115
1215H949L849 1061Q809 1080 763 1090T663 1102Q541 1105 442 1061T269 940Q196 863 151 761T91 544ZM360 523L362 544Q369 602 388 662T442 771Q475 820 524 850T643 878Q665 878 683 873T718 859L371 323Q363 351 360 382T356 444Q356 464 357 484T360 523ZM809
553L807 532Q799 475 781 416T729 308Q695 259 646 229T528 200Q510 201 495 204T465 212L803 734Q809 709 811 684T814 633Q814 613 813 593T809 553Z" />
<glyph unicode="&#xf9;" d="M425 -21Q522 -23 600 27T739 153L718 0H963L1151 1082H879L746 322Q727 296 706 276T660 240Q630 222 595 213T518 205Q466 206 438 227T399 281Q387 314 387 355T393 439L500 1082H229L122 442Q113 357 121 276T167 125Q202 62 264
21T425 -21ZM813 1204L684 1483H402L615 1204H813Z" />
<glyph unicode="&#xfa;" d="M425 -21Q522 -23 600 27T739 153L718 0H963L1151 1082H879L746 322Q727 296 706 276T660 240Q630 222 595 213T518 205Q466 206 438 227T399 281Q387 314 387 355T393 439L500 1082H229L122 442Q113 357 121 276T167 125Q202 62 264
21T425 -21ZM813 1480L587 1201H814L1127 1480H813Z" />
<glyph unicode="&#xfb;" d="M425 -21Q522 -23 600 27T739 153L718 0H963L1151 1082H879L746 322Q727 296 706 276T660 240Q630 222 595 213T518 205Q466 206 438 227T399 281Q387 314 387 355T393 439L500 1082H229L122 442Q113 357 121 276T167 125Q202 62 264
21T425 -21ZM1086 1280L829 1522H674L361 1282L359 1250L578 1252L749 1377L875 1251L1084 1250L1086 1280Z" />
<glyph unicode="&#xfc;" d="M425 -21Q522 -23 600 27T739 153L718 0H963L1151 1082H879L746 322Q727 296 706 276T660 240Q630 222 595 213T518 205Q466 206 438 227T399 281Q387 314 387 355T393 439L500 1082H229L122 442Q113 357 121 276T167 125Q202 62 264
21T425 -21ZM621 1367Q621 1314 660 1280T755 1246Q808 1248 847 1283T886 1375Q886 1429 846 1463T753 1497Q699 1495 660 1459T621 1367ZM1087 1367Q1087 1313 1127 1279T1220 1244Q1273 1246 1312 1282T1352 1375Q1352 1430 1310 1463T1218 1496Q1163 1495 1125
1459T1087 1367Z" />
<glyph unicode="&#xfd;" d="M557 442L425 1082H139L401 59L305 -80Q288 -100 271 -122T234 -164Q214 -183 191 -196T139 -211Q119 -213 97 -210T55 -206L0 -417Q35 -426 69 -432T140 -440Q211 -440 269 -419T376 -359Q424 -322 463 -271T536 -163L1283 1082H972L566
343L557 442ZM836 1480L610 1201H837L1150 1480H836Z" />
<glyph unicode="&#xfe;" d="M746 8Q795 28 835 60T911 133Q936 164 957 199T997 273Q1025 336 1043 403T1069 537L1071 558Q1077 619 1076 682T1062 806Q1050 866 1026 919T962 1012Q922 1052 867 1076T738 1102Q691 1103 649 1093T569 1063Q542 1049 517 1030T468
986L575 1543H304L-36 -416H235L332 97Q353 71 378 51T430 16Q464 -2 502 -11T582 -21Q628 -22 669 -15T746 8ZM529 201Q501 202 476 208T431 227Q408 241 391 262T362 314L441 767Q461 795 484 816T536 852Q560 865 588 871T648 876Q689 875 717 860T763 819Q781
793 790 761T802 694Q805 659 804 624T799 559L797 538Q790 482 773 422T725 312Q709 287 690 267T646 231Q622 216 593 208T529 201Z" />
<glyph unicode="&#xff;" d="M557 442L425 1082H139L401 59L305 -80Q288 -100 271 -122T234 -164Q214 -183 191 -196T139 -211Q119 -213 97 -210T55 -206L0 -417Q35 -426 69 -432T140 -440Q211 -440 269 -419T376 -359Q424 -322 463 -271T536 -163L1283 1082H972L566
343L557 442ZM387 1367Q387 1314 426 1280T521 1246Q574 1248 613 1283T652 1375Q652 1429 612 1463T519 1497Q465 1495 426 1459T387 1367ZM853 1367Q853 1313 893 1279T986 1244Q1039 1246 1078 1282T1118 1375Q1118 1430 1076 1463T984 1496Q929 1495 891 1459T853
1367Z" />
<glyph unicode="&#x2013;" d="M1145 601L1197 828H110L58 601H1145Z" />
<glyph unicode="&#x2014;" d="M1141 601L1193 828H106L54 601H1141Z" />
<glyph unicode="&#x2018;" d="M576 1187L547 1012H765L795 1189Q811 1276 847 1351T932 1498L810 1579Q765 1542 727 1498T658 1404Q627 1354 606 1300T576 1187Z" />
<glyph unicode="&#x2019;" d="M892 1388L920 1560H702L673 1387Q657 1299 622 1224T536 1077L658 996Q703 1033 741 1077T811 1171Q841 1221 862 1275T892 1388Z" />
<glyph unicode="&#x201a;" d="M666 66L700 269H473L437 64Q422 -22 388 -97T305 -244L433 -325Q521 -250 584 -150T666 66Z" />
<glyph unicode="&#x201c;" d="M416 1187L387 1012H605L635 1189Q651 1276 687 1351T772 1498L650 1579Q605 1542 567 1498T498 1404Q467 1354 446 1300T416 1187ZM747 1187L718 1012H936L966 1189Q982 1276 1018 1351T1103 1498L981 1579Q936 1542 898 1498T829
1404Q798 1354 777 1300T747 1187Z" />
<glyph unicode="&#x201d;" d="M731 1388L759 1560H541L512 1387Q496 1299 461 1224T375 1077L497 996Q542 1033 580 1077T650 1171Q680 1221 701 1275T731 1388ZM1079 1388L1107 1560H889L860 1387Q844 1299 809 1224T723 1077L845 996Q890 1033 928 1077T998
1171Q1028 1221 1049 1275T1079 1388Z" />
<glyph unicode="&#x201e;" d="M529 65L555 235H328L298 62Q283 -24 249 -99T166 -246L300 -327Q389 -253 450 -152T529 65ZM847 65L874 235H647L616 62Q601 -25 564 -99T479 -246L612 -327Q657 -290 695 -246T765 -152Q796 -102 817 -47T847 65Z" />
<glyph unicode="&#x2022;" d="M421 780L419 720Q419 672 433 633T476 564Q503 535 542 519T630 502Q681 501 724 517T799 564Q831 594 850 635T873 728L876 785Q877 834 863 875T822 948Q794 978 754 995T664 1014Q612 1014 569 997T493 948Q461 917 443 874T421 780Z" />
<glyph unicode="&#x2039;" d="M580 514L895 927H702L368 537L366 517L580 128H741L580 514Z" />
<glyph unicode="&#x203a;" d="M598 926H437L597 539L284 127H476L811 518L812 538L598 926Z" />
</font>
</defs>
</svg>
